BitTorrentTracker PerecTracker.org
BitTorrentTracker PerecTracker.org
    
Регистрация  ·  Вход
 
 · 
Забыли пароль?

  • [ATV3] Голоса большой страны (Таир Мамедов) [2016, Россия, Мюзикл, комедия, мелодрама, WEB-DL, HD (1080p)] Original

    Ответить на тему
     
    Автор Сообщение

    Flirldrerve

    Создавать темы 16-Фев-2016 17:39

           

    [Цитировать]

    Голоса большой страны
    -
    7.187 / 10
    -Год выпуска: 2016
    Страна: Россия
    Жанр: Мюзикл, комедия, мелодрама
    Продолжительность: 01:41:09
    Перевод: Не требуется
    Оригинальная аудиодорожка: Есть
    Cубтитры: Нет
    Режиссёр: Таир Мамедов
    Сценарий: Андрей Гаврилов, Сергей Нежданов, Таир Мамедов
    Продюсер: Антон Беляев, Владимир Поляков, Виктория Лихтина
    Оператор: Кирилл Зоткин
    Монтаж: Кирилл Козлов
    В ролях: Алена Тойминцева, Андрей Гризли, Егор Сесарев, Тина Кузнецова, Антон Беляев, Мариам Мерабова, Ярослав Дронов, Илья Киреев, Виктория Жук, Анжелика Фролова
    Бюджет: 120 000 000 руб.
    Сборы в России: $279 122
    Мировая премьера:
    Премьера (РФ): 7 января 2016, «Каропрокат»
    Описание: В каждом уголке нашей огромной родины есть талантливые люди, достойные признания и славы. Они слетаются в столицу и принимают участие в популярных телевизионных шоу. Но свет софитов гаснет, а жизнь продолжается. И не так, как им это виделось…
    Каждому из наших героев — юных и взрослых, амбициозных и скромных, одиноких и влюбленных — придется пройти через многие испытания. Их ждут взлеты и падения, встречи и расставания, дружба и предательство. Но в итоге они станут одной большой командой, семьей, объединившей разных людей из самых отдаленных городков нашей большой страны, во имя музыки, таланта и, конечно же, любви!-Качество исходника: WEB-DL 1080p
    Качество: WEB-DL
    Тип: HD (1080p)
    Контейнер: M4V
    Видео: H.264, 1912x800, 2.40:1, 4 434 Kbps, 24.000 fps
    Аудио 1: Русский/Оригинальная дорожка , AAC / 2.0 / 158 Kbps / 48.0 KHz
    Аудио 2: Русский/Оригинальная дорожка , AC-3 / 5.1 / 384 Kbps / 48.0 KHz
    -

    iTunes Meta Tags

    Sort Name: Голоса большой страны
    XID: Apple:vendor_id:2016-893520
    contentID: 1077591846
    Screenwriters: Андрей Гаврилов, Сергей Нежданов, Таир Мамедов
    Producers: Антон Беляев, Владимир Поляков, Виктория Лихтина
    Director: Таир Мамедов
    Cast: Алена Тойминцева, Андрей Гризли, Егор Сесарев, Тина Кузнецова, Антон Беляев, Мариам Мерабова, Ярослав Дронов, Илья Киреев, Виктория Жук, Анжелика Фролова
    Studio: Enjoy Movies
    Rating: 133
    Long Description: В каждом уголке нашей огромной родины есть талантливые люди, достойные признания и славы. Они слетаются в столицу и принимают участие в популярных телевизионных шоу. Но свет софитов гаснет, а жизнь продолжается. И не так, как им это виделось...
    Каждому из наших героев - юных и взрослых, амбициозных и скромных, одиноких и влюбленных - придется пройти через многие испытания. Их ждут взлеты и падения, встречи и расставания, дружба и предательство. Но в итоге они станут одной большой командой, семьей, объединившей разных людей из самых отдаленных городков нашей большой страны, во имя музыки, таланта и, конечно же, любви!
    Description: В каждом уголке нашей огромной родины есть талантливые люди, достойные признания и славы. Они слетаются в столицу и принимают участие в популярных телевизионных шоу. Но свет софитов гаснет, а жизнь продолжается. И не так, как им это виделось...
    Release Date: 2016-01-01T08:00:00Z
    Genre: Мюзиклы
    Artist: Таир Мамедов
    Name: Голоса большой страны

    MediaInfo

    General
    Complete name : /Users/imac/HandBrake/Golosa.Strany.WEB-DL.1080p.m4v
    Format : MPEG-4
    Codec ID : M4V  (M4V /M4A /mp42/isom)
    File size : 3.52 GiB
    Duration : 1h 41mn
    Overall bit rate mode : Variable
    Overall bit rate : 4 982 Kbps
    Movie name : Голоса большой страны
    Performer : Таир Мамедов
    Director : Таир Мамедов
    Actor : Алена Тойминцева / Андрей Гризли / Егор Сесарев / Тина Кузнецова / Антон Беляев / Мариам Мерабова / Ярослав Дронов / Илья Киреев / Виктория Жук / Анжелика Фролова
    Screenplay by : Андрей Гаврилов / Сергей Нежданов / Таир Мамедов
    Producer : Антон Беляев / Владимир Поляков / Виктория Лихтина
    Production studio : Enjoy Movies
    Genre : Мюзиклы
    ContentType : Short Film
    Description : В каждом уголке нашей огромной родины есть талантливые люди, достойные признания и славы. Они слетаются в столицу и принимают участие в популярных телевизионных шоу. Но свет софитов гаснет, а жизнь продолжается. И не так, как им это виделось...
    Recorded date : UTC 2016-01-01 08:00:00
    Encoded date : UTC 2016-02-16 07:54:03
    Tagged date : UTC 2016-02-16 07:57:20
    Cover : Yes
    Rating : None
    Title/Sort : Голоса большой страны
    LongDescription : В каждом уголке нашей огромной родины есть талантливые люди, достойные признания и славы. Они слетаются в столицу и принимают участие в популярных телевизионных шоу. Но свет софитов гаснет, а жизнь продолжается. И не так, как им это виделось... / Каждому из наших героев - юных и взрослых, амбициозных и скромных, одиноких и влюбленных - придется пройти через многие испытания. Их ждут взлеты и падения, встречи и расставания, дружба и предательство. Но в итоге они станут одной большой командой, семьей, объединившей разных людей из самых отдаленных городков нашей большой страны, во имя музыки, таланта и, конечно же, любви!
    AppleStoreCatalogID : 1077591846
    Vendor : Apple:vendor_id:2016-893520
    ContentRating : ru-movie|6+|150|
    Video #1
    ID : 1
    Format : AVC
    Format/Info : Advanced Video Codec
    Format profile : High@L4
    Format settings, CABAC : Yes
    Format settings, ReFrames : 5 frames
    Codec ID : avc1
    Codec ID/Info : Advanced Video Coding
    Duration : 1h 41mn
    Bit rate : 4 434 Kbps
    Width : 1 912 pixels
    Height : 800 pixels
    Display aspect ratio : 2.40:1
    Frame rate mode : Variable
    Frame rate : 24.000 fps
    Minimum frame rate : 23.810 fps
    Maximum frame rate : 24.390 fps
    Color space : YUV
    Chroma subsampling : 4:2:0
    Bit depth : 8 bits
    Scan type : Progressive
    Bits/(Pixel*Frame) : 0.121
    Stream size : 3.13 GiB (89%)
    Title : Main Program
    Language : Russian
    Encoded date : UTC 2016-02-16 07:54:03
    Tagged date : UTC 2016-02-16 07:54:10
    Color range : Limited
    Color primaries : BT.709
    Transfer characteristics : BT.709
    Matrix coefficients : BT.709
    Menus : 4,5
    Video #2
    ID : 5
    Format : JPEG
    Codec ID : jpeg
    Duration : 1h 41mn
    Bit rate mode : Variable
    Bit rate : 640 bps
    Width : 640 pixels
    Height : 267 pixels
    Display aspect ratio : 2.40:1
    Frame rate mode : Variable
    Frame rate : 0.002 fps
    Minimum frame rate : 0.001 fps
    Maximum frame rate : 0.003 fps
    Color space : YUV
    Chroma subsampling : 4:2:0
    Bit depth : 8 bits
    Compression mode : Lossy
    Bits/(Pixel*Frame) : 1.873
    Stream size : 429 KiB (0%)
    Title : Chapter Images
    Language : Russian
    Default : No
    Encoded date : UTC 2016-02-16 07:54:16
    Tagged date : UTC 2016-02-16 07:54:16
    Menu For : 1
    Audio #1
    ID : 2
    Format : AAC
    Format/Info : Advanced Audio Codec
    Format profile : LC
    Codec ID : 40
    Duration : 1h 41mn
    Bit rate mode : Variable
    Bit rate : 158 Kbps
    Maximum bit rate : 249 Kbps
    Channel(s) : 2 channels
    Channel positions : Front: L R
    Sampling rate : 48.0 KHz
    Frame rate : 46.875 fps (1024 spf)
    Compression mode : Lossy
    Stream size : 114 MiB (3%)
    Title : Russian Stereo
    Language : Russian
    Default : Yes
    Alternate group : 1
    Encoded date : UTC 2016-02-16 07:54:03
    Tagged date : UTC 2016-02-16 07:54:12
    Fallback From : 3
    Audio #2
    ID : 3
    Format : AC-3
    Format/Info : Audio Coding 3
    Mode extension : CM (complete main)
    Format settings, Endianness : Big
    Codec ID : ac-3
    Duration : 1h 41mn
    Bit rate mode : Constant
    Bit rate : 384 Kbps
    Channel(s) : 6 channels
    Channel positions : Front: L C R, Side: L R, LFE
    Sampling rate : 48.0 KHz
    Frame rate : 31.250 fps (1536 spf)
    Bit depth : 16 bits
    Compression mode : Lossy
    Stream size : 278 MiB (8%)
    Title : Russian DD 5.1
    Language : Russian
    Default : Inherited From: 2
    Alternate group : 1
    Encoded date : UTC 2016-02-16 07:54:03
    Tagged date : UTC 2016-02-16 07:54:10
    Fallback To : 2
    Menu #1
    00:00:00.000 : 1
    00:07:02.000 : 2
    00:17:47.000 : 3
    00:29:25.000 : 4
    00:36:17.000 : 5
    00:47:10.000 : 6
    00:58:01.000 : 7
    01:05:39.000 : 8
    01:13:43.000 : 9
    01:26:37.000 : 10
    01:35:57.000 : 11
    Menu #2
    ID : 4
    Codec ID : text
    Duration : 1h 41mn
    Language : Russian
    Encoded date : UTC 2016-02-16 07:54:12
    Tagged date : UTC 2016-02-16 07:54:12
    Menu For : 1
    00:00:00.000 : 1
    00:07:02.000 : 2
    00:17:47.000 : 3
    00:29:25.000 : 4
    00:36:17.000 : 5
    00:47:10.000 : 6
    00:58:01.000 : 7
    01:05:39.000 : 8
    01:13:43.000 : 9
    01:26:37.000 : 10
    01:35:57.000 : 11
    Bit rate mode : VBR

    Скриншоты

    -

    Релиз подготовлен для просмотра на Apple TV, iPad, iPhone, iPod Touch.
    Для просмотра данного релиза на компьютере с ОС Windows рекомендуется использовать VLC media player
    Скачать .torrent

    Скачать торрент-файл бесплатно и на максимальной скорости!

    Как скачивать? · Что такое торрент? · Рейтинг и ограничения

    !ВНИМАНИЕ!
    Сайт не распространяет и не хранит электронные версии произведений, а занимается лишь лишь предоставлением доступа к создаваемому пользователями каталогу ссылок на торрент-файлы, которые содержат только списки хеш-сумм, убедительная просьба с жалобами обращаться напрямую к пользователю. Файлы для обмена на трекере предоставлены пользователями сайта, и администрация не несёт ответственности за их содержание. Просьба не заливать файлы, защищенные авторскими правами, а также файлы нелегального содержания!


    _________________
    [Профиль] [ЛС]
    Показать сообщения:    
    Ответить на тему

    Текущее время: Сегодня, в 10:13

    Часовой пояс: GMT + 2



    Вы не можете начинать темы
    Вы не можете отвечать на сообщения
    Вы не можете редактировать свои сообщения
    Вы не можете удалять свои сообщения
    Вы не можете голосовать в опросах
    Вы не можете прикреплять файлы к сообщениям
    Вы не можете скачивать файлы