Register  ·  Log in
Forgot password?

  • Дэдпул / Deadpool (Тим Миллер) [2016, США, Канада, Боевик, Фантастика, Комедия, CamRip] Dub

    Reply to topic
    Author Message


    Post 16-Feb-2016 18:39



    Дэдпул / Deadpool
    Страна: США, Канада
    Жанр: Боевик, Фантастика, Комедия
    Год выпуска: 2016
    Продолжительность: 01:36:25
    Перевод: Профессиональный (дублированный)
    Cубтитры: нет
    Режиссер: Тим Миллер
    В ролях: Райан Рейнольдс, Морена Баккарин, Джина Карано, ТиДжей Миллер, Эд Скрейн, Рэйчел Шин, Брианна Хилдебранд, Андре Трикоте, Тэйлор Хиксон, Джед Риис
    Описание: Уэйд Уилсон — наемник. Будучи побочным продуктом программы вооруженных сил под названием «Оружие Х», Уилсон приобрел невероятную силу, проворство и исцеляющий фактор. Но страшной ценой: его клеточная структура постоянно меняется, а его здравомыслие сомнительно. Все чего Уилсон хочет — это держаться на плаву в социальной выгребной яме. Но течение в ней слишком быстрое.
    Качество видео: CamRip
    Формат видео: AVI
    Видео: Xvid, 720x310, 16:9, 23.976 fps, ~1609 kbps
    Аудио: MP3, 41.1 кГц, 128 кбит, 2 канала


    Complete name : N/a
    Format : AVI
    Format/Info : Audio Video Interleave
    Format profile : OpenDML
    Format settings : rec
    File size : 1.17 GiB
    Duration : 1h 36mn
    Overall bit rate : 1 741 Kbps
    Movie name : Дэдпул
    Writing application : AVI-Mux GUI, Feb 16 201019:42:50
    ID : 0
    Format : MPEG-4 Visual
    Format profile : Advanced Simple@L5
    Format settings, BVOP : 2
    Format settings, QPel : No
    Format settings, GMC : No warppoints
    Format settings, Matrix : Default (H.263)
    Muxing mode : Packed bitstream
    Codec ID : XVID
    Codec ID/Hint : XviD
    Duration : 1h 36mn
    Bit rate : 1 609 Kbps
    Width : 720 pixels
    Height : 310 pixels
    Display aspect ratio : 2.35:1
    Frame rate : 23.976 fps
    Color space : YUV
    Chroma subsampling : 4:2:0
    Bit depth : 8 bits
    Scan type : Progressive
    Compression mode : Lossy
    Bits/(Pixel*Frame) : 0.301
    Stream size : 1.08 GiB (92%)
    Writing library : XviD 67
    ID : 1
    Format : MPEG Audio
    Format version : Version 1
    Format profile : Layer 3
    Codec ID : 55
    Codec ID/Hint : MP3
    Duration : 1h 36mn
    Bit rate mode : Constant
    Bit rate : 128 Kbps
    Channel(s) : 2 channels
    Sampling rate : 44.1 KHz
    Compression mode : Lossy
    Stream size : 88.3 MiB (7%)
    Alignment : Aligned on interleaves
    Interleave, duration : 516 ms (12.37 video frames)
    Interleave, preload duration : 208 ms


    Download .torrent

    Download free and at maximum speed!

    How to Download? · What is a torrent? · Ratings and Limitations

    The site does not extend and does not store electronic(digital) versions of products, and only gives access to a reference catalogue created by users on torrent-files which contain only lists of the hash-sums, the earnest entreaty, with complaints(abuse) to access directly to the user. Files for an exchange on tracker are given by users of a site, and the administration does not bear the responsibility for their maintenance. The request to not fill in the files protected by copyrights, and also files of the illegal maintenance!

    [Profile] [PM]


    Post 20-Feb-2016 02:04 (after 3 days)


    Топик был перенесен из форума Фильмы 2016 в форум Экранки (Горячие новинки 2015 - 2016)


    Как бы ты высоко не летал, не забывай, с кем ты ползал..
    Display posts from previous:    
    Reply to topic

    The time now is: Today 04:34

    All times are GMT + 3 Hours

    You cannot post new topics in this forum
    You cannot reply to topics in this forum
    You cannot edit your posts in this forum
    You cannot delete your posts in this forum
    You cannot vote in polls in this forum
    You cannot attach files in this forum
    You cannot download files in this forum