BitTorrentTracker PerecTracker.org
BitTorrentTracker PerecTracker.org
    
Регистрация  ·  Вход
 
 · 
Забыли пароль?

  • День радио (Дмитрий Дьяченко) [2008, Россия, комедия, BDRip-AVC]

    Ответить на тему
     
    Автор Сообщение

    rechyn

    Создавать темы 16-Фев-2016 09:15

           

    [Цитировать]

    День радио-Страна: Россия
    Жанр: комедия
    Год выпуска: 2008
    Продолжительность: 01:43:02
    Перевод: Не требуется
    Оригинальная аудиодорожка: русский
    Режиссер: Дмитрий Дьяченко
    В ролях: Леонид Барац, Александр Демидов, Камиль Ларин, Ростислав Хаит, Михаил Козырев, Нонна Гришаева, Дмитрий Марьянов, Николай Фоменко, Максим Виторган, Анна Касаткина-Барац, Михаил Полицеймако, Анастасия Сапожникова, Фёдор Добронравов, Алексей Хардиков, Михаил Бескоровайный, Константин Чепурин, Эммануил Виторган, Георгий Мартиросян, Сергей Беляев, Владимир Шахрин, Владимир Бегунов, Алексей Кортнев, Илья Лагутенко, Олег Скрипка, Диана Арбенина, Максим Покровский, Ольга Кузина, Сергей Мазаев, Сергей Бабкин, Игорь Гоцманов, Амалия Мордвинова
    Описание: Один день из жизни модной московской радиостанции. Не самый лучший день — рушатся все планы, все валится из рук… И именно в тот момент, когда на станции в прямом эфире вот-вот должен начаться «живой» марафон, а популярные российские рок-группы придут в эфир, чтобы поддержать… впрочем, это уже неважно, потому что тема марафона перехвачена конкурентами и активно обсуждается в эфире «вражеской» радиостанции. Но марафон отменять нельзя!
    Рабочий день обещает стать последним для всего творческого состава, если срочно не найдется новая тема. А тем временем из Находки вышел маленький катер с лучшими представителями Благовещенского областного цирка — медведь, обезьяна, два пуделя, петух, козел, кабан, которые плывут на гастроли в Японию. И если бы кто-то из команды катера не слил налево полбака солярки, а еще кто-то — еще полбака, то они бы, возможно, даже и доплыли бы.

    Качество: BDRip-AVC (исходник - Blu-ray)
    Формат: MKV
    Видео: x264@L4.1, 1136x614(1.85:1), 23.976 кадр/сек, 3590 Кбит/сек, 0.215 bit/pixel
    Аудио: 48 kHz, AC3 Dolby Digital, 3/2 (L,C,R,l,r) + LFE ch, ~448 kbps avg
    MediaInfo | x264 log
    Format : Matroska
    Format version : Version 4 / Version 2
    File size : 2.91 GiB
    Duration : 1h 43mn
    Overall bit rate : 4 038 Kbps
    Movie name : День радио (2008) :: AFM::
    Encoded date : UTC 2016-02-15 05:59:43
    Writing application : mkvmerge v8.3.0 ('Over the Horizon') 32bit
    Writing library : libebml v1.3.1 + libmatroska v1.4.2
    Video
    ID : 1
    Format : AVC
    Format/Info : Advanced Video Codec
    Format profile : High@L4.1
    Format settings, CABAC : Yes
    Format settings, ReFrames : 9 frames
    Codec ID : V_MPEG4/ISO/AVC
    Duration : 1h 43mn
    Bit rate : 3 590 Kbps
    Width : 1 136 pixels
    Height : 614 pixels
    Display aspect ratio : 1.85:1
    Frame rate mode : Constant
    Frame rate : 23.976 fps
    Color space : YUV
    Chroma subsampling : 4:2:0
    Bit depth : 8 bits
    Scan type : Progressive
    Bits/(Pixel*Frame) : 0.215
    Stream size : 2.53 GiB (87%)
    Title : BDRip by AFM [RuTracker.org]
    Writing library : x264 core 148 r2665kMod a01e339
    Encoding settings : cabac=1 / ref=9 / deblock=1:-2:-2 / analyse=0x3:0x113 / me=umh / subme=10 / psy=1 / fade_compensate=0.00 / psy_rd=1.00:0.00 / mixed_ref=1 / me_range=32 / chroma_me=1 / trellis=2 / 8x8dct=1 / cqm=0 / deadzone=21,11 / fast_pskip=0 / chroma_qp_offset=-2 / threads=6 / lookahead_threads=1 / sliced_threads=0 / nr=0 / decimate=0 / interlaced=0 / bluray_compat=0 / constrained_intra=0 / fgo=0 / bframes=9 / b_pyramid=2 / b_adapt=2 / b_bias=0 / direct=3 / weightb=1 / open_gop=0 / weightp=2 / keyint=250 / keyint_min=23 / scenecut=40 / intra_refresh=0 / rc_lookahead=40 / rc=2pass / mbtree=0 / bitrate=3590 / ratetol=1.0 / qcomp=0.65 / qpmin=0 / qpmax=69 / qpstep=4 / cplxblur=20.0 / qblur=0.5 / vbv_maxrate=50000 / vbv_bufsize=62500 / nal_hrd=none / filler=0 / ip_ratio=1.35 / pb_ratio=1.30 / aq=2:0.90 / zones=145020,148209,q=35
    Language : Russian
    Default : Yes
    Forced : No
    Audio
    ID : 2
    Format : AC-3
    Format/Info : Audio Coding 3
    Mode extension : CM (complete main)
    Format settings, Endianness : Big
    Codec ID : A_AC3
    Duration : 1h 43mn
    Bit rate mode : Constant
    Bit rate : 448 Kbps
    Channel(s) : 6 channels
    Channel positions : Front: L C R, Side: L R, LFE
    Sampling rate : 48.0 KHz
    Compression mode : Lossy
    Stream size : 330 MiB (11%)
    Title : AC3 5.1 ~448 kbps
    Language : Russian
    Default : Yes
    Forced : No

    x264

    x264 [info]: frame I:1116 Avg QP:17.39 size: 85676
    x264 [info]: frame P:31637 Avg QP:20.22 size: 36009
    x264 [info]: frame B:115456 Avg QP:22.01 size: 13323
    x264 [info]: consecutive B-frames: 1.6% 2.4% 7.8% 18.9% 19.9% 42.0% 5.2% 0.8% 1.0% 0.3%
    x264 [info]: mb I I16..4: 3.9% 84.3% 11.8%
    x264 [info]: mb P I16..4: 1.2% 13.4% 1.3% P16..4: 41.4% 26.4% 12.7% 0.0% 0.0% skip: 3.6%
    x264 [info]: mb B I16..4: 0.0% 0.9% 0.1% B16..8: 44.4% 11.2% 2.8% direct: 9.6% skip:31.1% L0:42.2% L1:46.1% BI:11.8%
    x264 [info]: 8x8 transform intra:84.9% inter:65.6%
    x264 [info]: direct mvs spatial:98.8% temporal:1.2%
    x264 [info]: coded y,uvDC,uvAC intra: 90.9% 82.3% 51.3% inter: 36.2% 29.0% 7.8%
    x264 [info]: i16 v,h,dc,p: 27% 14% 12% 47%
    x264 [info]: i8 v,h,dc,ddl,ddr,vr,hd,vl,hu: 13% 8% 6% 10% 14% 14% 13% 11% 12%
    x264 [info]: i4 v,h,dc,ddl,ddr,vr,hd,vl,hu: 13% 8% 2% 9% 15% 15% 14% 11% 12%
    x264 [info]: i8c dc,h,v,p: 40% 25% 19% 16%
    x264 [info]: Weighted P-Frames: Y:1.7% UV:0.7%
    x264 [info]: ref P L0: 42.9% 10.4% 18.8% 7.1% 6.5% 4.6% 4.3% 2.5% 2.6% 0.3% 0.0%
    x264 [info]: ref B L0: 80.0% 9.8% 4.0% 2.2% 1.6% 1.4% 0.8% 0.3%
    x264 [info]: ref B L1: 94.9% 5.1%
    x264 [info]: kb/s:3588.78

    Скриншоты

    с названием

    Скачать .torrent

    Скачать торрент-файл бесплатно и на максимальной скорости!

    Как скачивать? · Что такое торрент? · Рейтинг и ограничения

    !ВНИМАНИЕ!
    Сайт не распространяет и не хранит электронные версии произведений, а занимается лишь лишь предоставлением доступа к создаваемому пользователями каталогу ссылок на торрент-файлы, которые содержат только списки хеш-сумм, убедительная просьба с жалобами обращаться напрямую к пользователю. Файлы для обмена на трекере предоставлены пользователями сайта, и администрация не несёт ответственности за их содержание. Просьба не заливать файлы, защищенные авторскими правами, а также файлы нелегального содержания!


    _________________
    [Профиль] [ЛС]
    Показать сообщения:    
    Ответить на тему

    Текущее время: Сегодня, в 08:08

    Часовой пояс: GMT + 2



    Вы не можете начинать темы
    Вы не можете отвечать на сообщения
    Вы не можете редактировать свои сообщения
    Вы не можете удалять свои сообщения
    Вы не можете голосовать в опросах
    Вы не можете прикреплять файлы к сообщениям
    Вы не можете скачивать файлы