BitTorrentTracker PerecTracker.org
BitTorrentTracker PerecTracker.org
    
Регистрация  ·  Вход
 
 · 
Забыли пароль?

  • Убей меня трижды / Убей меня три раза / Kill Me Three Times (Крив Стендерс / Kriv Stenders) [2014, США, Австралия, Боевик, Триллер, BDRip-AVC] MVO (iTunes) + sub (rus, eng) + original eng

    Ответить на тему
     
    Автор Сообщение

    rechyn

    Создавать темы 16-Фев-2016 05:02

           

    [Цитировать]

    -Убей меня трижды / Kill Me Three TimesСтрана: США, Австралия
    Жанр: триллер, боевик
    Год выпуска: 2014
    Продолжительность: 01:30:22-Перевод: Профессиональный (Многоголосый закадровый) [iTunes]
    Cубтитры: русские, английские
    Оригинальная аудиодорожка: английский-Режиссер: Крив Стендерс / Kriv Stenders-В ролях-Тереза Палмер, Саймон Пегг, Люк Хемсворт, Алиси Брага, Салливан Степлтон, Каллэн Мулвей, Брайан Браун, Стив Ле Маркванд, Тони Спенсер, Анна Филп-Описание-Чарли Вульф — наемный убийца, который ненавидит, когда в его дела вмешивается кто-нибудь посторонний. Однажды к нему обращается старый знакомый Джек Тейлор, который предлагает ему пятьдесят тысяч за убийство своей жены во время ее визита к стоматологу. Выследив жертву, Чарли готовится выполнить заказ, но вскоре замечает, как дантист и его медсестра-ассистентка грузят тело супруги Джека в багажник автомобиля. Киллер совершенно не ожидал такого поворота событий и начал слежку за своими конкурентами. Он уверен только в одном, что смерти этой женщины хочет не только Джек, но возвращать свой гонорар Чарли не намерен...-Качество видео: BDRip
    Исходное видео: Blu-ray disc (KILL_ME_3T_BLUEBIRD)-Контейнер: MKV-Видео: AVC, 1104x460 (2,40:1), ~2600 kbps, 23.976 fps,
    Аудио: AC-3, 384 kbps, Dolby Digital, 3/2 (L,C,R,l,r) + LFE ch, 48 KHz |MVO|
    Аудио: AC-3, 448 kbps, Dolby Digital, 3/2 (L,C,R,l,r) + LFE ch, 48 KHz |Оригинал|
    Формат субтитров: softsub (SRT)-- MediaInfo

    x264

    VIDEO ENCODING
    ------------------------------
    Encoding video to: J:\Temp\0154.264
    x264 Q17.4 1104x460 23.976fps (130008 frames)
    avs4x26x.exe: -L x264_64.exe --crf 17.4 --preset veryslow --profile high --level 4.1 --ref 14 --aq-mode 3 --aq-strength 0.8 --deblock -3:-2 --merange 32 --bframes 16 --direct spatial --no-dct-decimate --qpmin 8 --subme 11 --no-mbtree --keyint 240 --slices 4 --colorprim bt709 --transfer bt709 --colormatrix bt709 --vbv-bufsize 62500 --vbv-maxrate 50000 --partitions p8x8,b8x8,i4x4,i8x8 --zones 120590,130008,q=30 --sar 1:1 --output "J:\Temp\0154.264" "J:\Temp\0154.avs"
    raw [info]: 1104x460p 1:1 @ 24000/1001 fps (cfr)
    x264 [info]: using SAR=1/1
    x264 [info]: using cpu capabilities: MMX2 SSE2Fast LZCNT
    x264 [info]: profile High, level 4.1
    x264 [info]: frame I:1140 Avg QP:16.41 size: 79251
    x264 [info]: frame P:27325 Avg QP:18.78 size: 29203
    x264 [info]: frame B:101543 Avg QP:20.44 size: 8634
    x264 [info]: consecutive B-frames: 2.1% 2.2% 6.5% 19.7% 18.0% 36.9% 6.4% 3.9% 1.6% 0.8% 0.4% 0.4% 0.3% 0.2% 0.1% 0.0% 0.3%
    x264 [info]: mb I I16..4: 4.7% 72.9% 22.4%
    x264 [info]: mb P I16..4: 0.9% 10.9% 1.8% P16..4: 31.5% 33.0% 13.4% 0.0% 0.0% skip: 8.5%
    x264 [info]: mb B I16..4: 0.2% 1.2% 0.2% B16..8: 32.1% 18.8% 3.5% direct: 5.3% skip:38.8% L0:41.4% L1:42.7% BI:15.9%
    x264 [info]: 8x8 transform intra:78.3% inter:57.5%
    x264 [info]: coded y,uvDC,uvAC intra: 82.0% 84.5% 68.5% inter: 22.4% 25.2% 12.6%
    x264 [info]: i16 v,h,dc,p: 31% 22% 11% 37%
    x264 [info]: i8 v,h,dc,ddl,ddr,vr,hd,vl,hu: 9% 9% 13% 8% 11% 12% 12% 11% 15%
    x264 [info]: i4 v,h,dc,ddl,ddr,vr,hd,vl,hu: 13% 10% 13% 7% 13% 12% 11% 9% 12%
    x264 [info]: i8c dc,h,v,p: 44% 26% 16% 14%
    x264 [info]: Weighted P-Frames: Y:3.0% UV:1.7%
    x264 [info]: ref P L0: 46.5% 11.1% 16.8% 5.8% 5.0% 3.4% 3.1% 1.6% 1.6% 1.2% 1.2% 0.9% 0.9% 0.9% 0.1% 0.0%
    x264 [info]: ref B L0: 72.9% 11.5% 5.3% 2.8% 1.9% 1.6% 1.2% 0.8% 0.6% 0.6% 0.5% 0.3% 0.1%
    x264 [info]: ref B L1: 92.7% 7.3%
    x264 [info]: kb/s:2604.01
    Полное имя : J:\Раздачи\Kill_Me_Three_Times_(1014).BDRip-AVC_RGTru(cw).mkv
    Формат : Matroska
    Версия формата : Version 2
    Размер файла : 2,17 Гбайт
    Продолжительность : 1 ч. 30 м.
    Общий поток : 3439 Кбит/сек
    Название фильма : Убей меня три раза / Kill Me Three Times (2014)_[RGTru]
    Дата кодирования : UTC 2015-10-15 10:04:15
    Программа кодирования : mkvmerge v7.8.0 ('River Man') 32bit built on Apr 3 2015 12:11:22
    Библиотека кодирования : libebml v1.3.1 + libmatroska v1.4.2
    Видео
    Идентификатор : 1
    Формат : AVC
    Формат/Информация : Advanced Video Codec
    Профиль формата : High@L4.1
    Параметр CABAC формата : Да
    Параметр ReFrames формата : 14 кадров
    Идентификатор кодека : V_MPEG4/ISO/AVC
    Продолжительность : 1 ч. 30 м.
    Битрейт : 2538 Кбит/сек
    Ширина : 1104 пикселя
    Высота : 460 пикселей
    Соотношение сторон : 2,40:1
    Режим частоты кадров : Постоянный
    Частота кадров : 23,976 кадра/сек
    Цветовое пространство : YUV
    Субдискретизация насыщенности : 4:2:0
    Битовая глубина : 8 бит
    Тип развёртки : Прогрессивная
    Бит/(Пиксели*Кадры) : 0.208
    Размер потока : 1,60 Гбайт (74%)
    Заголовок : Kill_Me_Three_Times_(1014).BDRip_RGTru(cw)
    Библиотека кодирования : x264 core 148 r2597 e86f3a1
    Настройки программы : cabac=1 / ref=14 / deblock=1:-3:-2 / analyse=0x3:0x113 / me=umh / subme=11 / psy=1 / psy_rd=1.00:0.00 / mixed_ref=1 / me_range=32 / chroma_me=1 / trellis=2 / 8x8dct=1 / cqm=0 / deadzone=21,11 / fast_pskip=1 / chroma_qp_offset=-2 / threads=4 / lookahead_threads=1 / sliced_threads=0 / slices=4 / nr=0 / decimate=0 / interlaced=0 / bluray_compat=0 / constrained_intra=0 / bframes=16 / b_pyramid=2 / b_adapt=2 / b_bias=0 / direct=1 / weightb=1 / open_gop=0 / weightp=2 / keyint=240 / keyint_min=23 / scenecut=40 / intra_refresh=0 / rc_lookahead=60 / rc=crf / mbtree=0 / crf=17.4 / qcomp=0.60 / qpmin=8 / qpmax=69 / qpstep=4 / vbv_maxrate=50000 / vbv_bufsize=62500 / crf_max=0.0 / nal_hrd=none / filler=0 / ip_ratio=1.40 / pb_ratio=1.30 / aq=3:0.80 / zones=120590,130008,q=30
    Язык : English
    Default : Да
    Forced : Нет
    Цветовой диапазон : Limited
    Основные цвета : BT.709
    Характеристики трансфера : BT.709
    Коэффициенты матрицы : BT.709
    Аудио #1
    Идентификатор : 2
    Формат : AC-3
    Формат/Информация : Audio Coding 3
    Расширение режима : CM (complete main)
    Параметр Endianness формата : Big
    Идентификатор кодека : A_AC3
    Продолжительность : 1 ч. 30 м.
    Вид битрейта : Постоянный
    Битрейт : 384 Кбит/сек
    Каналы : 6 каналов
    Расположение каналов : Front: L C R, Side: L R, LFE
    Частота : 48,0 КГц
    Битовая глубина : 16 бит
    Метод сжатия : С потерями
    Размер потока : 248 Мбайт (11%)
    Заголовок : MVO
    Язык : Russian
    Default : Да
    Forced : Нет
    Аудио #2
    Идентификатор : 3
    Формат : AC-3
    Формат/Информация : Audio Coding 3
    Расширение режима : CM (complete main)
    Параметр Endianness формата : Big
    Идентификатор кодека : A_AC3
    Продолжительность : 1 ч. 30 м.
    Вид битрейта : Постоянный
    Битрейт : 448 Кбит/сек
    Каналы : 6 каналов
    Расположение каналов : Front: L C R, Side: L R, LFE
    Частота : 48,0 КГц
    Битовая глубина : 16 бит
    Метод сжатия : С потерями
    Размер потока : 290 Мбайт (13%)
    Заголовок : Original
    Язык : English
    Default : Нет
    Forced : Нет
    Текст #1
    Идентификатор : 4
    Формат : UTF-8
    Идентификатор кодека : S_TEXT/UTF8
    Идентификатор кодека/Информация : UTF-8 Plain Text
    Язык : Russian
    Default : Нет
    Forced : Нет
    Текст #2
    Идентификатор : 5
    Формат : UTF-8
    Идентификатор кодека : S_TEXT/UTF8
    Идентификатор кодека/Информация : UTF-8 Plain Text
    Язык : English
    Default : Нет
    Forced : Нет
    Меню
    00:00:00.000 : en:00:00:00.000
    00:07:29.366 : en:00:07:29.366
    00:13:41.571 : en:00:13:41.571
    00:23:19.732 : en:00:23:19.732
    00:30:45.385 : en:00:30:45.385
    00:35:43.850 : en:00:35:43.850
    00:44:16.863 : en:00:44:16.863
    00:49:52.364 : en:00:49:52.364
    00:57:46.546 : en:00:57:46.546
    01:02:43.760 : en:01:02:43.760
    01:12:23.297 : en:01:12:23.297
    01:23:49.024 : en:01:23:49.024
    Скриншоты
    Сравнение с исходником Рип-- БД

    Скачать .torrent

    Скачать торрент-файл бесплатно и на максимальной скорости!

    Как скачивать? · Что такое торрент? · Рейтинг и ограничения

    !ВНИМАНИЕ!
    Сайт не распространяет и не хранит электронные версии произведений, а занимается лишь лишь предоставлением доступа к создаваемому пользователями каталогу ссылок на торрент-файлы, которые содержат только списки хеш-сумм, убедительная просьба с жалобами обращаться напрямую к пользователю. Файлы для обмена на трекере предоставлены пользователями сайта, и администрация не несёт ответственности за их содержание. Просьба не заливать файлы, защищенные авторскими правами, а также файлы нелегального содержания!


    _________________
    [Профиль] [ЛС]
    Показать сообщения:    
    Ответить на тему

    Текущее время: Сегодня, в 18:43

    Часовой пояс: GMT + 2



    Вы не можете начинать темы
    Вы не можете отвечать на сообщения
    Вы не можете редактировать свои сообщения
    Вы не можете удалять свои сообщения
    Вы не можете голосовать в опросах
    Вы не можете прикреплять файлы к сообщениям
    Вы не можете скачивать файлы