BitTorrentTracker PerecTracker.org
BitTorrentTracker PerecTracker.org
    
Регистрация  ·  Вход
 
 · 
Забыли пароль?

  • Макбет / Macbeth (Джастин Курзель / Justin Kurzel) [2015, Великобритания, Франция, США, драма, военный, BDRip-AVC] Dub + Original + Subs (rus, eng)

    Ответить на тему
     
    Автор Сообщение

    rechyn

    Создавать темы 16-Фев-2016 00:50

           

    [Цитировать]

    Макбет / Macbeth«Кровь порождает кровь»-Страна: Великобритания, Франция, США
    Жанр: драма, военный
    Год выпуска: 2015
    Продолжительность: 01:52:52
    Перевод: Профессиональный (полное дублирование) (iTunes)
    Оригинальная аудиодорожка: английский
    Cубтитры: русские, английские
    Навигация по главам: есть
    Режиссёр: Джастин Курзель / Justin Kurzel
    В ролях: Майкл Фассбендер, Марион Котийяр, Пэдди Консидайн, Шон Харрис, Джек Рейнор, Элизабет Дебики, Дэвид Тьюлис, Росс Андерсон, Дэвид Хейман, Морис Роевз
    Описание: Холодные поля Шотландии, военный лагерь, всегда готовый переместиться в другое место. Макбет всегда на войне, его жена, недавно потерявшая ребенка, боится потерять еще и мужа. Чтобы удержать его рядом, она начинает свой проект по устранению конкурентов в борьбе за королевскую корону.

    Качество видео: BDRip-AVC (исходник - BDRemux|NNM-CLUB)
    Формат видео: MKV
    Видео: x264, 1152x482 (2.40:1), 23,976 fps, ~2002 kbps, 0.150 bit/pixel
    Аудио 1: 48 kHz, AC3Dolby Digital, 3/2 (L,C,R,l,r) + LFE ch, ~384 kbps [русский]
    Аудио 2: 48 kHz, AC3 Dolby Digital, 3/2 (L,C,R,l,r) + LFE ch, ~384 kbps [английский]
    Формат субтитров: softsub (SRT)
    MediaInfo | x264 log
    Format : Matroska
    Format version : Version 4 / Version 2
    File size : 2.16 GiB
    Duration : 1h 52mn
    Overall bit rate : 2 743 Kbps
    Movie name : Макбет / Macbeth (2015) :: AFM ::
    Encoded date : UTC 2016-02-15 12:17:28
    Writing application : mkvmerge v8.3.0 ('Over the Horizon') 32bit
    Writing library : libebml v1.3.1 + libmatroska v1.4.2
    DURATION : 01:41:58.582000000
    NUMBER_OF_FRAMES : 901
    NUMBER_OF_BYTES : 28472
    _STATISTICS_WRITING_APP : mkvmerge v8.3.0 ('Over the Horizon') 32bit
    _STATISTICS_WRITING_DATE_UTC : 2016-02-15 12:17:28
    _STATISTICS_TAGS : BPS DURATION NUMBER_OF_FRAMES NUMBER_OF_BYTES
    Video
    ID : 1
    Format : AVC
    Format/Info : Advanced Video Codec
    Format profile : High@L4.1
    Format settings, CABAC : Yes
    Format settings, ReFrames : 9 frames
    Codec ID : V_MPEG4/ISO/AVC
    Duration : 1h 52mn
    Bit rate : 2 002 Kbps
    Width : 1 152 pixels
    Height : 482 pixels
    Display aspect ratio : 2.40:1
    Frame rate mode : Constant
    Frame rate : 24.000 fps
    Color space : YUV
    Chroma subsampling : 4:2:0
    Bit depth : 8 bits
    Scan type : Progressive
    Bits/(Pixel*Frame) : 0.150
    Stream size : 1.51 GiB (70%)
    Title : BDRip by AFM [RuTracker.org]
    Writing library : x264 core 148 r2665kMod a01e339
    Encoding settings : cabac=1 / ref=9 / deblock=1:-3:-2 / analyse=0x3:0x113 / me=umh / subme=11 / psy=1 / fade_compensate=0.00 / psy_rd=1.00:0.00 / mixed_ref=1 / me_range=32 / chroma_me=1 / trellis=2 / 8x8dct=1 / cqm=0 / deadzone=21,11 / fast_pskip=0 / chroma_qp_offset=-2 / threads=6 / lookahead_threads=1 / sliced_threads=0 / nr=0 / decimate=0 / interlaced=0 / bluray_compat=0 / constrained_intra=0 / fgo=0 / bframes=12 / b_pyramid=2 / b_adapt=2 / b_bias=0 / direct=3 / weightb=1 / open_gop=0 / weightp=2 / keyint=250 / keyint_min=23 / scenecut=40 / intra_refresh=0 / rc_lookahead=40 / rc=2pass / mbtree=0 / bitrate=2002 / ratetol=1.0 / qcomp=0.65 / qpmin=0 / qpmax=69 / qpstep=4 / cplxblur=20.0 / qblur=0.5 / vbv_maxrate=50000 / vbv_bufsize=62500 / nal_hrd=none / filler=0 / ip_ratio=1.35 / pb_ratio=1.30 / aq=2:0.90
    Language : English
    Default : Yes
    Forced : No
    DURATION : 01:52:52.422000000
    NUMBER_OF_FRAMES : 162538
    NUMBER_OF_BYTES : 1669793343
    _STATISTICS_WRITING_APP : mkvmerge v8.3.0 ('Over the Horizon') 32bit
    _STATISTICS_WRITING_DATE_UTC : 2016-02-15 12:17:28
    _STATISTICS_TAGS : BPS DURATION NUMBER_OF_FRAMES NUMBER_OF_BYTES
    Audio #1
    ID : 2
    Format : AC-3
    Format/Info : Audio Coding 3
    Mode extension : CM (complete main)
    Format settings, Endianness : Big
    Codec ID : A_AC3
    Duration : 1h 52mn
    Bit rate mode : Constant
    Bit rate : 384 Kbps
    Channel(s) : 6 channels
    Channel positions : Front: L C R, Side: L R, LFE
    Sampling rate : 48.0 KHz
    Compression mode : Lossy
    Stream size : 310 MiB (14%)
    Title : Dub AC3, 5.1 ~384 kbps
    Language : Russian
    Default : Yes
    Forced : No
    Audio #2
    ID : 3
    Format : AC-3
    Format/Info : Audio Coding 3
    Mode extension : CM (complete main)
    Format settings, Endianness : Big
    Codec ID : A_AC3
    Duration : 1h 52mn
    Bit rate mode : Constant
    Bit rate : 384 Kbps
    Channel(s) : 6 channels
    Channel positions : Front: L C R, Side: L R, LFE
    Sampling rate : 48.0 KHz
    Compression mode : Lossy
    Stream size : 310 MiB (14%)
    Title : Original, AC3, 5.1 ~384 kbps
    Language : English
    Default : No
    Forced : No
    Text #1
    ID : 4
    Format : UTF-8
    Codec ID : S_TEXT/UTF8
    Codec ID/Info : UTF-8 Plain Text
    Title : full
    Language : Russian
    Default : Yes
    Forced : No
    Text #2
    ID : 5
    Format : UTF-8
    Codec ID : S_TEXT/UTF8
    Codec ID/Info : UTF-8 Plain Text
    Title : full
    Language : English
    Default : No
    Forced : No
    Text #3
    ID : 6
    Format : UTF-8
    Codec ID : S_TEXT/UTF8
    Codec ID/Info : UTF-8 Plain Text
    Title : SDH
    Default : No
    Forced : No
    Menu
    00:00:00.000 : en:Chapter 01
    00:09:44.500 : en:Chapter 02
    00:18:19.417 : en:Chapter 03
    00:33:11.042 : en:Chapter 04
    00:42:30.625 : en:Chapter 05
    00:51:18.042 : en:Chapter 06
    01:00:19.250 : en:Chapter 07
    01:11:23.125 : en:Chapter 08
    01:16:26.083 : en:Chapter 09
    01:26:24.583 : en:Chapter 10
    01:33:59.917 : en:Chapter 11
    01:46:27.000 : en:Chapter 12

    x264

    x264 [info]: frame I:1041 Avg QP:12.72 size: 75410
    x264 [info]: frame P:32278 Avg QP:15.87 size: 21959
    x264 [info]: frame B:129219 Avg QP:17.94 size: 6830
    x264 [info]: consecutive B-frames: 2.0% 2.4% 7.4% 12.1% 12.4% 38.8% 8.3% 4.0% 2.7% 1.9% 2.6% 2.9% 2.5%
    x264 [info]: mb I I16..4: 8.4% 76.0% 15.6%
    x264 [info]: mb P I16..4: 1.1% 6.5% 1.0% P16..4: 33.5% 38.9% 11.9% 0.0% 0.0% skip: 7.1%
    x264 [info]: mb B I16..4: 0.1% 0.5% 0.1% B16..8: 36.6% 20.0% 2.7% direct: 3.8% skip:36.2% L0:48.2% L1:45.1% BI: 6.7%
    x264 [info]: 8x8 transform intra:75.2% inter:57.4%
    x264 [info]: direct mvs spatial:98.8% temporal:1.2%
    x264 [info]: coded y,uvDC,uvAC intra: 76.5% 74.3% 55.9% inter: 19.1% 16.1% 6.5%
    x264 [info]: i16 v,h,dc,p: 31% 15% 8% 47%
    x264 [info]: i8 v,h,dc,ddl,ddr,vr,hd,vl,hu: 14% 6% 11% 9% 12% 12% 12% 11% 12%
    x264 [info]: i4 v,h,dc,ddl,ddr,vr,hd,vl,hu: 34% 5% 9% 8% 10% 10% 9% 8% 9%
    x264 [info]: i8c dc,h,v,p: 34% 32% 20% 14%
    x264 [info]: Weighted P-Frames: Y:11.7% UV:8.1%
    x264 [info]: ref P L0: 42.2% 5.8% 18.5% 8.8% 7.2% 5.4% 5.2% 3.1% 2.9% 0.8% 0.1%
    x264 [info]: ref B L0: 62.8% 15.0% 8.4% 5.1% 3.5% 2.9% 1.7% 0.6%
    x264 [info]: ref B L1: 89.7% 10.3%
    x264 [info]: kb/s:1972.46

    Скриншоты

    с названием

    Скачать .torrent

    Скачать торрент-файл бесплатно и на максимальной скорости!

    Как скачивать? · Что такое торрент? · Рейтинг и ограничения

    !ВНИМАНИЕ!
    Сайт не распространяет и не хранит электронные версии произведений, а занимается лишь лишь предоставлением доступа к создаваемому пользователями каталогу ссылок на торрент-файлы, которые содержат только списки хеш-сумм, убедительная просьба с жалобами обращаться напрямую к пользователю. Файлы для обмена на трекере предоставлены пользователями сайта, и администрация не несёт ответственности за их содержание. Просьба не заливать файлы, защищенные авторскими правами, а также файлы нелегального содержания!


    _________________
    [Профиль] [ЛС]
    Показать сообщения:    
    Ответить на тему

    Текущее время: Сегодня, в 07:56

    Часовой пояс: GMT + 2



    Вы не можете начинать темы
    Вы не можете отвечать на сообщения
    Вы не можете редактировать свои сообщения
    Вы не можете удалять свои сообщения
    Вы не можете голосовать в опросах
    Вы не можете прикреплять файлы к сообщениям
    Вы не можете скачивать файлы