BitTorrentTracker PerecTracker.org
BitTorrentTracker PerecTracker.org
    
Регистрация  ·  Вход
 
 · 
Забыли пароль?

  • Джек / Jack (Эдвард Бергер / Edward Berger) [2014, Германия, драма, DVDRip-AVC] VO (Максим Ивона) + Sub Rus + Original Ger

    Ответить на тему
     
    Автор Сообщение

    rechyn

    Создавать темы 15-Фев-2016 16:26

           

    [Цитировать]

    Джек / Jack
    Страна: Германия
    Жанр: драма
    Год выпуска: 2014
    Продолжительность: 01:38:04
    Перевод: одноголосый закадровый (Максим Ивона)
    Перевод 2: внешние субтитры (Владимир Даль)
    Cубтитры: русские
    Оригинальная аудиодорожка: немецкий
    Режиссер: Эдвард Бергер / Edward Berger
    В ролях: Иво Питцкер/Ivo Pietzcker, Луизе Хейер/Luise Heyer, Георг Армс/Georg Arms, Одине Йоне/Odine Johne, Йоханнес Хендрик Лангер/Johannes Hendrik Langer, Якоб Маченц/Jacob Matschenz, Неле Мюллер-Штофен/Nele Mueller-Stöfen, Винсент Редецки/Vincent Redetzki, Себастьян Штильке/Sebastian Stielke
    Описание: В свои десять лет Джек отвечает не только за себя, но и за своего младшего брата Мануэля, которого очень любит. Их мать-одиночка весь день работает, а по ночам часто куда-то уходит, отца он никогда не видел. Однажды Мануэль обжигается кипятком во время купания. В этом обвиняют Джека, что становится достаточным поводом, чтобы отправить его в детский дом. Вскоре мальчик попадает в неприятности, из-за которых сбегает обратно домой, но обнаруживает, что их мать снова куда-то пропала. Джек и Мануэль скитаются по городу в поисках матери. Они спят в парках и на подземных стоянках, убегают от полиции и случайно встречаются со взрослыми, среди которых одни помогают, а другие остаются равнодушными.
    Сэмпл: http://sendfile.su/1204227
    Качество видео: DVDRip-AVC
    Формат видео: MP4
    Видео: MPEG4 Video (H264), 720x576 (16:9), 25 fps, 1600 kbps, 0.154 bit/pixel
    Аудио: AAC, 48000 Hz, 2 ch, 195 kbps (русский)
    Аудио 2: AAC, 48000 Hz, 2 ch, 195 kbps (немецкий)
    Формат субтитров: softsub (SRT)

    MediaInfo

    Общее
    Полное имя : C:\Jack2014\Jack_2014_ru.mp4
    Формат : MPEG-4
    Профиль формата : Base Media
    Идентификатор кодека : isom (isom/avc1)
    Размер файла : 1,37 Гбайт
    Продолжительность : 1 ч. 38 м.
    Режим общего битрейта : Переменный
    Общий поток : 1998 Кбит/сек
    Дата кодирования : UTC 2016-02-14 19:20:40
    Дата пометки : UTC 2016-02-14 19:20:40
    Программа кодирования : My MP4Box GUI 0.6.0.6 <http://my-mp4box-gui.zymichost.com>;
    Видео
    Идентификатор : 1
    Формат : AVC
    Формат/Информация : Advanced Video Codec
    Профиль формата : High@L4.1
    Параметр CABAC формата : Да
    Параметр ReFrames формата : 4 кадра
    Идентификатор кодека : avc1
    Идентификатор кодека/Информация : Advanced Video Coding
    Продолжительность : 1 ч. 38 м.
    Битрейт : 1600 Кбит/сек
    Максимальный битрейт : 8413 Кбит/сек
    Ширина : 720 пикселей
    Высота : 576 пикселей
    Соотношение сторон : 16:9
    Режим частоты кадров : Постоянный
    Частота кадров : 25,000 кадров/сек
    Стандарт вещания : PAL
    Цветовое пространство : YUV
    Субдискретизация насыщенности : 4:2:0
    Битовая глубина : 8 бит
    Тип развёртки : Прогрессивная
    Бит/(Пиксели*Кадры) : 0.154
    Размер потока : 1,10 Гбайт (80%)
    Заголовок : VTS_03.h264
    Библиотека кодирования : x264 core 142 r2479 dd79a61
    Настройки программы : cabac=1 / ref=3 / deblock=1:0:0 / analyse=0x3:0x113 / me=hex / subme=7 / psy=1 / psy_rd=1.00:0.00 / mixed_ref=1 / me_range=16 / chroma_me=1 / trellis=1 / 8x8dct=1 / cqm=0 / deadzone=21,11 / fast_pskip=1 / chroma_qp_offset=-2 / threads=3 / lookahead_threads=1 / sliced_threads=0 / nr=0 / decimate=1 / interlaced=0 / bluray_compat=0 / constrained_intra=0 / bframes=3 / b_pyramid=2 / b_adapt=1 / b_bias=0 / direct=1 / weightb=1 / open_gop=0 / weightp=2 / keyint=250 / keyint_min=25 / scenecut=40 / intra_refresh=0 / rc_lookahead=40 / rc=2pass / mbtree=1 / bitrate=1600 / ratetol=1.0 / qcomp=0.60 / qpmin=0 / qpmax=69 / qpstep=4 / cplxblur=20.0 / qblur=0.5 / vbv_maxrate=62500 / vbv_bufsize=78125 / nal_hrd=none / filler=0 / ip_ratio=1.40 / aq=1:1.00
    Дата кодирования : UTC 2016-02-14 19:20:40
    Дата пометки : UTC 2016-02-14 19:24:16
    Цветовой диапазон : Limited
    Основные цвета : BT.601 PAL
    Характеристики трансфера : BT.709
    Коэффициенты матрицы : BT.601
    Аудио #1
    Идентификатор : 2
    Формат : AAC
    Формат/Информация : Advanced Audio Codec
    Профиль формата : LC
    Идентификатор кодека : 40
    Продолжительность : 1 ч. 38 м.
    Вид битрейта : Переменный
    Битрейт : 196 Кбит/сек
    Максимальный битрейт : 202 Кбит/сек
    Каналы : 2 канала
    Расположение каналов : Front: L R
    Частота : 48,0 КГц
    Частота кадров : 46,875 кадров/сек (1024 spf)
    Метод сжатия : С потерями
    Размер потока : 137 Мбайт (10%)
    Заголовок : VTS_03_rus.aac
    Дата кодирования : UTC 2016-02-14 19:23:35
    Дата пометки : UTC 2016-02-14 19:24:16
    Аудио #2
    Идентификатор : 3
    Формат : AAC
    Формат/Информация : Advanced Audio Codec
    Профиль формата : LC
    Идентификатор кодека : 40
    Продолжительность : 1 ч. 38 м.
    Вид битрейта : Переменный
    Битрейт : 196 Кбит/сек
    Максимальный битрейт : 202 Кбит/сек
    Каналы : 2 канала
    Расположение каналов : Front: L R
    Частота : 48,0 КГц
    Частота кадров : 46,875 кадров/сек (1024 spf)
    Метод сжатия : С потерями
    Размер потока : 137 Мбайт (10%)
    Заголовок : VTS_03_syn.aac
    Дата кодирования : UTC 2016-02-14 19:23:52
    Дата пометки : UTC 2016-02-14 19:24:16

    Скриншот c названием фильма

    Скриншоты

    Скачать .torrent

    Скачать торрент-файл бесплатно и на максимальной скорости!

    Как скачивать? · Что такое торрент? · Рейтинг и ограничения

    !ВНИМАНИЕ!
    Сайт не распространяет и не хранит электронные версии произведений, а занимается лишь лишь предоставлением доступа к создаваемому пользователями каталогу ссылок на торрент-файлы, которые содержат только списки хеш-сумм, убедительная просьба с жалобами обращаться напрямую к пользователю. Файлы для обмена на трекере предоставлены пользователями сайта, и администрация не несёт ответственности за их содержание. Просьба не заливать файлы, защищенные авторскими правами, а также файлы нелегального содержания!


    _________________
    [Профиль] [ЛС]
    Показать сообщения:    
    Ответить на тему

    Текущее время: Сегодня, в 08:20

    Часовой пояс: GMT + 2



    Вы не можете начинать темы
    Вы не можете отвечать на сообщения
    Вы не можете редактировать свои сообщения
    Вы не можете удалять свои сообщения
    Вы не можете голосовать в опросах
    Вы не можете прикреплять файлы к сообщениям
    Вы не можете скачивать файлы