BitTorrentTracker PerecTracker.org
BitTorrentTracker PerecTracker.org
    
Регистрация  ·  Вход
 
 · 
Забыли пароль?

  • Александр и ужасный, кошмарный, нехороший, очень плохой день / Alexander and the Terrible, Horrible, No Good, Very Bad Day (Мигель Артета / Miguel Arteta) [2014, США, комедия, семейный, HDTVRip] [Open Matte] Dub

    Ответить на тему
     
    Автор Сообщение

    rechyn

    Создавать темы 15-Фев-2016 16:26

           

    [Цитировать]

    Александр и ужасный, кошмарный, нехороший, очень плохой день / Alexander and the Terrible, Horrible, No Good, Very Bad Day / Open Matte
    Страна: США
    Жанр: комедия, семейный
    Год выпуска: 2014
    Продолжительность: 01:13:07
    Перевод: Профессиональный (дублированный)
    Cубтитры: нет
    Оригинальная аудиодорожка: нет
    Режиссер: Мигель Артета / Miguel Arteta
    В ролях: Стив Карелл, Дженнифер Гарнер, Эд Оксенбульд, Дилан Миннетт, Кэррис Дорси, Элиз Варгас, Зоя Варгас, Сидни Фуллмер, Белла Торн, Меган Маллалли ...
    Описание: Утро для Александра началось ужасно: жвачка, которая еще вечером была у него во рту, теперь запуталась в волосах, вставая с кровати, он поскользнулся на скейтборде и по ошибке бросил свой свитер в раковину, когда там была вода. Уже тогда можно было сказать, что это будет ужасный, страшный, нехороший, очень плохой день. Все валилось из рук и шло совсем не так, как хотелось бы. Что же делать в такой день? Например, можно подумать о путешествии в Австралию. Также можно обнаружить, что день такой плохой не только у тебя…
    Доп. информация: Рип с канала Первый HD. От логотипа пока избавиться полностью не удалось. Наполнение кадра отличается от BD http://screenshotcomparison.com/comparison/161930
    Сэмпл: http://multi-up.com/1089166
    Качество видео: HDTVRip
    Формат видео: AVI
    Видео: MPEG4, XviD, 720x400 (16:9), 25.000 fps, 2 286 Kbps (0.318 bit/pixel)
    Аудио: AC-3, 48.0 KHz, 6 ch, 384 Kbps, CBR

    MediaInfo

    Общее
    Полное имя : N:\Александр и ужасный, кошмарный, нехороший, очень плохой день.avi
    Формат : AVI
    Формат/Информация : Audio Video Interleave
    Размер файла : 1,37 Гбайт
    Продолжительность : 1 ч. 13 м.
    Общий поток : 2680 Кбит/сек
    Название фильма : Александр и ужасный, кошмарный, нехороший, очень плохой день / Alexander and the Terrible, Horrible, No Good, Very Bad Day (2014)
    Программа кодирования : VirtualDubMod 1.5.10.2 (build 2540/release)
    Библиотека кодирования : VirtualDubMod build 2540/release
    Авторское право : miha2154
    Видео
    Идентификатор : 0
    Формат : MPEG-4 Visual
    Профиль формата : Advanced Simple@L5
    Параметр BVOP формата : 1
    Параметр QPel формата : Нет
    Параметр GMC формата : Без точки перехода
    Параметр матрицы формата : Выборочная
    Идентификатор кодека : XVID
    Идентификатор кодека/Подсказка : XviD
    Продолжительность : 1 ч. 13 м.
    Битрейт : 2286 Кбит/сек
    Ширина : 720 пикселей
    Высота : 400 пикселей
    Соотношение сторон : 16:9
    Частота кадров : 25,000 кадров/сек
    Цветовое пространство : YUV
    Субдискретизация насыщенности : 4:2:0
    Битовая глубина : 8 бит
    Тип развёртки : Прогрессивная
    Метод сжатия : С потерями
    Бит/(Пиксели*Кадры) : 0.318
    Размер потока : 1,17 Гбайт (85%)
    Библиотека кодирования : XviD 65
    Аудио
    Идентификатор : 1
    Формат : AC-3
    Формат/Информация : Audio Coding 3
    Расширение режима : CM (complete main)
    Параметр Endianness формата : Big
    Идентификатор кодека : 2000
    Продолжительность : 1 ч. 13 м.
    Вид битрейта : Постоянный
    Битрейт : 384 Кбит/сек
    Каналы : 6 каналов
    Расположение каналов : Front: L C R, Side: L R, LFE
    Частота : 48,0 КГц
    Частота кадров : 31,250 кадров/сек (1536 spf)
    Метод сжатия : С потерями
    Размер потока : 201 Мбайт (14%)
    Выравнивание : Разделение по промежуткам
    Продолжительность промежутка : 40 мс. (1,00 видеокадр)
    Время предзагрузки промежутка : 500 мс.
    Заголовок : Профессиональный (полное дублирование)

    Скриншот c названием фильма

    Скриншоты


    Скачать .torrent

    Скачать торрент-файл бесплатно и на максимальной скорости!

    Как скачивать? · Что такое торрент? · Рейтинг и ограничения

    !ВНИМАНИЕ!
    Сайт не распространяет и не хранит электронные версии произведений, а занимается лишь лишь предоставлением доступа к создаваемому пользователями каталогу ссылок на торрент-файлы, которые содержат только списки хеш-сумм, убедительная просьба с жалобами обращаться напрямую к пользователю. Файлы для обмена на трекере предоставлены пользователями сайта, и администрация не несёт ответственности за их содержание. Просьба не заливать файлы, защищенные авторскими правами, а также файлы нелегального содержания!


    _________________
    [Профиль] [ЛС]
    Показать сообщения:    
    Ответить на тему

    Текущее время: Сегодня, в 04:19

    Часовой пояс: GMT + 2



    Вы не можете начинать темы
    Вы не можете отвечать на сообщения
    Вы не можете редактировать свои сообщения
    Вы не можете удалять свои сообщения
    Вы не можете голосовать в опросах
    Вы не можете прикреплять файлы к сообщениям
    Вы не можете скачивать файлы