BitTorrentTracker PerecTracker.org
BitTorrentTracker PerecTracker.org
    
Регистрация  ·  Вход
 
 · 
Забыли пароль?

  • Сёрвайвелист - специалист по выживанию / The Survivalist (Стивен Финглтон / Stephen Fingleton) [2015, Великобритания, боевик, фантастика, триллер, драма, HDRip] VO

    Ответить на тему
     
    Автор Сообщение

    rechyn

    Создавать темы 15-Фев-2016 16:26

           

    [Цитировать]

    Сёрвайвелист - специалист по выживанию / The Survivalist
    Страна: Великобритания
    Жанр: боевик, фантастика, триллер, драма
    Год выпуска: 2015
    Продолжительность: 01:43:32
    Перевод: Одноголосый закадровый
    Cубтитры: нет
    Режиссер: Стивен Финглтон
    В ролях: Миа Гот(Эверест), Мартин МакКанн, Эндрю Симпсон, Дуглас Расселл, Киери Ноддингс, Олуэн Фуэр, Райан МакПарланд, Киаран Флинн и другие.
    Описание: Ближайшее будущее. После того как перенаселение истощило мировые ресурсы, количество жителей Земли существенно уменьшилось, а от индустриальных запасов еды, как и от цивилизованного существования, не осталось и следа. Выживальщик — это мужчина, который ищет проживание в лесах Северной Ирландии. Он явно демонстрирует, что ему никто не нужен и он никого не хочет видеть в своей жизни. Но когда появляются две женщины, мать и дочь, сексуальное влечение берет верх. И в результате образуется странная компания из трех человек.(описание с КиноПоиска)
    Доп. информация: Внимание! В релизе нет мата и рекламы!
    Ограничение для просмотра 18+!
    Сэмпл: http://multi-up.com/1089185
    Качество видео: HDRip
    Формат видео: AVI
    Видео: 640х272, 806 Кбит/сек, 24 кадра
    Аудио: MP3, 128 Кбит/сек, 48,0 КГц, 2 канала

    MediaInfo

    Полное имя : The Survivalist.2015.HDRip.Rus.VOzamez.avi
    Полное имя : D:\The Survivalist.2015.HDRip.XViD-ETRG\The Survivalist.2015.HDRip.Rus.VOzamez.avi
    Формат : AVI
    Формат/Информация : Audio Video Interleave
    Размер файла : 699 Мбайт
    Продолжительность : 1 ч. 43 м.
    Общий поток : 944 Кбит/сек
    Программа кодирования : VirtualDubMod 1.5.10.2 (build 2542/release)
    Библиотека кодирования : VirtualDubMod build 2542/release
    Видео
    Идентификатор : 0
    Формат : MPEG-4 Visual
    Профиль формата : Advanced Simple@L5
    Параметр BVOP формата : 2
    Параметр QPel формата : Нет
    Параметр GMC формата : Без точки перехода
    Параметр матрицы формата : Default (H.263)
    Режим смешивания : Сжатый битовый поток
    Идентификатор кодека : XVID
    Идентификатор кодека/Подсказка : XviD
    Продолжительность : 1 ч. 43 м.
    Битрейт : 806 Кбит/сек
    Ширина : 640 пикселей
    Высота : 272 пикселя
    Соотношение сторон : 2,35:1
    Частота кадров : 24,000 кадра/сек
    Цветовое пространство : YUV
    Субдискретизация насыщенности : 4:2:0
    Битовая глубина : 8 бит
    Тип развёртки : Прогрессивная
    Метод сжатия : С потерями
    Бит/(Пиксели*Кадры) : 0.193
    Размер потока : 597 Мбайт (85%)
    Библиотека кодирования : XviD 67
    Аудио
    Идентификатор : 1
    Формат : MPEG Audio
    Версия формата : Version 1
    Профиль формата : Layer 3
    Идентификатор кодека : 55
    Идентификатор кодека/Подсказка : MP3
    Продолжительность : 1 ч. 43 м.
    Вид битрейта : Постоянный
    Битрейт : 128 Кбит/сек
    Каналы : 2 канала
    Частота : 48,0 КГц
    Метод сжатия : С потерями
    Размер потока : 94,8 Мбайт (14%)
    Выравнивание : Соединение по промежуткам
    Продолжительность промежутка : 42 мс. (1,00 видеокадр)
    Время предзагрузки промежутка : 504 мс.

    Скриншот c названием фильма

    Скриншоты

    Скачать .torrent

    Скачать торрент-файл бесплатно и на максимальной скорости!

    Как скачивать? · Что такое торрент? · Рейтинг и ограничения

    !ВНИМАНИЕ!
    Сайт не распространяет и не хранит электронные версии произведений, а занимается лишь лишь предоставлением доступа к создаваемому пользователями каталогу ссылок на торрент-файлы, которые содержат только списки хеш-сумм, убедительная просьба с жалобами обращаться напрямую к пользователю. Файлы для обмена на трекере предоставлены пользователями сайта, и администрация не несёт ответственности за их содержание. Просьба не заливать файлы, защищенные авторскими правами, а также файлы нелегального содержания!


    _________________
    [Профиль] [ЛС]
    Показать сообщения:    
    Ответить на тему

    Текущее время: Сегодня, в 16:24

    Часовой пояс: GMT + 2



    Вы не можете начинать темы
    Вы не можете отвечать на сообщения
    Вы не можете редактировать свои сообщения
    Вы не можете удалять свои сообщения
    Вы не можете голосовать в опросах
    Вы не можете прикреплять файлы к сообщениям
    Вы не можете скачивать файлы