BitTorrentTracker PerecTracker.org
BitTorrentTracker PerecTracker.org
    
Регистрация  ·  Вход
 
 · 
Забыли пароль?

  • Снупи и мелочь пузатая в кино / The Peanuts Movie (Стив Мартино / Steve Martino ) [2015, США, Мультфильм, комедия, приключения, семейный, WEB-DL, HD (720p)] DUB + + Original + sub (rus, ukr)

    Ответить на тему
     
    Автор Сообщение

    Light

    Создавать темы 15-Фев-2016 16:26

           

    [Цитировать]

    Снупи и мелочь пузатая в кино / The Peanuts Movie
    «Мечтать так мечтать»
    6.581 / 10 7.30 / 10
    -Год выпуска: 2015
    Страна: США
    Жанр: Мультфильм, комедия, приключения, семейный
    Продолжительность: 01:28:38
    Перевод: Дублированный (iTunes)
    Оригинальная аудиодорожка: Есть
    Cубтитры: Русские форсированные, Русские, Украинские
    Режиссёр: Стив Мартино
    Сценарий: Брайан Шульц, Крэйг Шульц, Корнелиус Юлиано
    Продюсер: Пол Фиг, Брайан Шульц, Крэйг Шульц
    Оператор: Ренато Фалькао
    Композитор: Кристоф Бек
    Художник: Нэш Данниган
    Монтаж: Кристофер Кэмпбелл, Рэнди Трагер
    В ролях: Тромбоун Шорти, Ребекка Блум, Анастасия Бредихина, Франческа Капальди, Кристин Ченоуэт, Александр Гарфин, Ной Джонстон, Билл Мелендес, Хэдли Белль Миллер, Мика Ревелли
    Бюджет: $99 000 000
    Сборы в США: $129 995 885
    Сборы в мире: + $114 159 589 = $244 155 474
    Сборы в России: $1 418 655
    Мировая премьера: 19 октября 2015
    Премьера (РФ): 24 декабря 2015, «Двадцатый Век Фокс СНГ»
    Описание: Чарли Браун, Снупи, Люси, Линус и другие полюбившиеся персонажи комиксов «Мелочь пузатая» впервые появятся на большом экране в полнометражном анимационном фильме, снятом с использованием последних достижений 3D-анимации. Снупи — самый симпатичный пес в мире — к тому же, классный пилот — отправляется в невероятные воздушные приключения в погоне за главным злодеем Красным Бароном. В это время у его приятеля Чарли Брауна начинаются поистине эпические приключения!-Качество исходника: WEB-DL 720p (HDClub)
    Качество: WEB-DL
    Тип: HD (720p)
    Контейнер: M4V
    Видео: H.264, 1280x688, 1.85:1, 4 106 Kbps, 23.976 (23976/1000) fps
    Аудио 1: Русский/Дублированный (iTunes), AAC / 2.0 / 157 Kbps / 48.0 KHz
    Аудио 2: Английский/Оригинальная дорожка , AAC / 2.0 / 157 Kbps / 48.0 KHz
    Аудио 3: Украинский/Дублированный (iTunes), AAC / 2.0 / 158 Kbps / 48.0 KHz
    Аудио 4: Русский/Дублированный (iTunes), AC-3 / 5.1 / 384 Kbps / 48.0 KHz
    Субтитры 1: Русские форсированные
    Субтитры 2: Русские полные
    Субтитры 3: Украинские полные
    -

    iTunes Meta Tags

    Sort Name: Peanuts Movie
    XID: Apple:vendor_id:2015-713465
    contentID: 1048833384
    Copyright: © 2015 Twentieth Century Fox Film Corporation. All rights reserved. PEANUTS 2015 Peanuts Worldwide LLC.
    Screenwriters: Брайан Шульц, Крэйг Шульц, Корнелиус Юлиано
    Producers: Пол Фиг, Брайан Шульц, Крэйг Шульц
    Director: Стив Мартино
    Cast: Тромбоун Шорти, Ребекка Блум, Анастасия Бредихина, Франческа Капальди, Кристин Ченоуэт, Александр Гарфин, Ной Джонстон, Билл Мелендес, Хэдли Белль Миллер, Мика Ревелли
    Studio: 20th Century Fox
    Rating: 2
    Long Description: Чарли Браун, Снупи, Люси, Линус и другие полюбившиеся персонажи комиксов "Мелочь пузатая" впервые появятся на большом экране в полнометражном анимационном фильме, снятом с использованием последних достижений 3D-анимации. Снупи - самый симпатичный пес в мире - к тому же, классный пилот - отправляется в невероятные воздушные приключения в погоне за главным злодеем Красным Бароном. В это время у его приятеля Чарли Брауна начинаются поистине эпические приключения!
    Description: Чарли Браун, Снупи, Люси, Линус и другие полюбившиеся персонажи комиксов "Мелочь пузатая" впервые появятся на большом экране в полнометражном анимационном фильме, снятом с использованием последних достижений 3D-анимации. Снупи - самый симпатичный пес в мире - к тому же, классный пилот - отправляется в невероятные воздушные приключения в погоне за главным злодеем Красным Бароном. В это время у его приятеля Чарли Брауна начинаются поистине эпические приключения!
    Release Date: 2015-10-19T08:00:00Z
    Genre: Kids & Family
    Artist: Steve Martino
    Name: The Peanuts Movie

    MediaInfo

    General
    Complete name : /Users/imac/HandBrake/The.Peanuts.Movie.720p.WEB-DL.m4v
    Format : MPEG-4
    Codec ID : M4V  (M4V /M4A /mp42/isom)
    File size : 3.08 GiB
    Duration : 1h 28mn
    Overall bit rate mode : Variable
    Overall bit rate : 4 969 Kbps
    Movie name : The Peanuts Movie
    Performer : Steve Martino
    Director : Стив Мартино
    Actor : Тромбоун Шорти / Ребекка Блум / Анастасия Бредихина / Франческа Капальди / Кристин Ченоуэт / Александр Гарфин / Ной Джонстон / Билл Мелендес / Хэдли Белль Миллер / Мика Ревелли
    Screenplay by : Брайан Шульц / Крэйг Шульц / Корнелиус Юлиано
    Producer : Пол Фиг / Брайан Шульц / Крэйг Шульц
    Production studio : 20th Century Fox
    Genre : Kids & Family
    ContentType : Short Film
    Description : Чарли Браун, Снупи, Люси, Линус и другие полюбившиеся персонажи комиксов "Мелочь пузатая" впервые появятся на большом экране в полнометражном анимационном фильме, снятом с использованием последних достижений 3D-анимации. Снупи - самый симпатичный пес в мире - к тому же, классный пилот - отправляется в невероятные воздушные приключения в погоне за главным злодеем Красным Бароном. В это время у его приятеля Чарли Брауна начинаются поистине эпические приключения!
    Recorded date : UTC 2015-10-19 08:00:00
    Encoded date : UTC 2016-02-15 08:13:05
    Tagged date : UTC 2016-02-15 08:14:31
    Copyright : © 2015 Twentieth Century Fox Film Corporation. All rights reserved. PEANUTS 2015 Peanuts Worldwide LLC.
    Cover : Yes
    Rating : None
    Title/Sort : Peanuts Movie
    LongDescription : Чарли Браун, Снупи, Люси, Линус и другие полюбившиеся персонажи комиксов "Мелочь пузатая" впервые появятся на большом экране в полнометражном анимационном фильме, снятом с использованием последних достижений 3D-анимации. Снупи - самый симпатичный пес в мире - к тому же, классный пилот - отправляется в невероятные воздушные приключения в погоне за главным злодеем Красным Бароном. В это время у его приятеля Чарли Брауна начинаются поистине эпические приключения!
    HDVideo : Yes
    AppleStoreCatalogID : 1048833384
    Vendor : Apple:vendor_id:2015-713465
    ContentRating : mpaa|G|100|
    Video #1
    ID : 1
    Format : AVC
    Format/Info : Advanced Video Codec
    Format profile : High@L3.1
    Format settings, CABAC : No
    Format settings, ReFrames : 2 frames
    Format settings, GOP : M=2, N=90
    Codec ID : avc1
    Codec ID/Info : Advanced Video Coding
    Duration : 1h 28mn
    Bit rate : 4 106 Kbps
    Width : 1 280 pixels
    Height : 688 pixels
    Display aspect ratio : 1.85:1
    Frame rate mode : Variable
    Frame rate : 23.976 (23976/1000) fps
    Minimum frame rate : 23.810 fps
    Maximum frame rate : 24.390 fps
    Color space : YUV
    Chroma subsampling : 4:2:0
    Bit depth : 8 bits
    Scan type : Progressive
    Bits/(Pixel*Frame) : 0.194
    Stream size : 2.54 GiB (83%)
    Title : Main Program
    Language : English
    Encoded date : UTC 2016-02-15 08:13:05
    Tagged date : UTC 2016-02-15 08:13:11
    Color range : Limited
    Color primaries : BT.709
    Transfer characteristics : BT.709
    Matrix coefficients : BT.709
    Menus : 9,10
    Video #2
    ID : 10
    Format : JPEG
    Codec ID : jpeg
    Duration : 1h 28mn
    Bit rate mode : Variable
    Bit rate : 2 340 bps
    Width : 640 pixels
    Height : 344 pixels
    Display aspect ratio : 1.85:1
    Frame rate mode : Variable
    Frame rate : 0.005 fps
    Minimum frame rate : 0.001 fps
    Maximum frame rate : 0.015 fps
    Color space : YUV
    Chroma subsampling : 4:2:0
    Bit depth : 8 bits
    Compression mode : Lossy
    Bits/(Pixel*Frame) : 2.126
    Stream size : 1.34 MiB (0%)
    Title : Chapter Images
    Language : English
    Default : No
    Encoded date : UTC 2016-02-15 08:13:18
    Tagged date : UTC 2016-02-15 08:13:19
    Menu For : 1
    Audio #1
    ID : 2
    Format : AAC
    Format/Info : Advanced Audio Codec
    Format profile : LC
    Codec ID : 40
    Duration : 1h 28mn
    Bit rate mode : Variable
    Bit rate : 157 Kbps
    Maximum bit rate : 257 Kbps
    Channel(s) : 2 channels
    Channel positions : Front: L R
    Sampling rate : 48.0 KHz
    Frame rate : 46.875 fps (1024 spf)
    Compression mode : Lossy
    Stream size : 98.9 MiB (3%)
    Title : Russian Stereo
    Language : Russian
    Default : Yes
    Alternate group : 1
    Encoded date : UTC 2016-02-15 08:13:05
    Tagged date : UTC 2016-02-15 08:13:13
    Fallback From : 5
    Subtitles : 6,7
    Audio #2
    ID : 3
    Format : AAC
    Format/Info : Advanced Audio Codec
    Format profile : LC
    Codec ID : 40
    Duration : 1h 28mn
    Bit rate mode : Variable
    Bit rate : 157 Kbps
    Maximum bit rate : 266 Kbps
    Channel(s) : 2 channels
    Channel positions : Front: L R
    Sampling rate : 48.0 KHz
    Frame rate : 46.875 fps (1024 spf)
    Compression mode : Lossy
    Stream size : 99.1 MiB (3%)
    Title : English Stereo
    Language : English
    Default : No
    Alternate group : 1
    Encoded date : UTC 2016-02-15 08:13:05
    Tagged date : UTC 2016-02-15 08:13:13
    Audio #3
    ID : 4
    Format : AAC
    Format/Info : Advanced Audio Codec
    Format profile : LC
    Codec ID : 40
    Duration : 1h 28mn
    Bit rate mode : Variable
    Bit rate : 158 Kbps
    Maximum bit rate : 267 Kbps
    Channel(s) : 2 channels
    Channel positions : Front: L R
    Sampling rate : 48.0 KHz
    Frame rate : 46.875 fps (1024 spf)
    Compression mode : Lossy
    Stream size : 99.6 MiB (3%)
    Title : Ukrainian Stereo
    Language : Ukrainian
    Default : No
    Alternate group : 1
    Encoded date : UTC 2016-02-15 08:13:05
    Tagged date : UTC 2016-02-15 08:13:13
    Audio #4
    ID : 5
    Format : AC-3
    Format/Info : Audio Coding 3
    Mode extension : CM (complete main)
    Format settings, Endianness : Big
    Codec ID : ac-3
    Duration : 1h 28mn
    Bit rate mode : Constant
    Bit rate : 384 Kbps
    Channel(s) : 6 channels
    Channel positions : Front: L C R, Side: L R, LFE
    Sampling rate : 48.0 KHz
    Frame rate : 31.250 fps (1536 spf)
    Bit depth : 16 bits
    Compression mode : Lossy
    Stream size : 242 MiB (8%)
    Title : Russian DD 5.1
    Language : Russian
    Default : Inherited From: 2
    Alternate group : 1
    Encoded date : UTC 2016-02-15 08:13:05
    Tagged date : UTC 2016-02-15 08:13:11
    Fallback To : 2
    Subtitles : 6,7
    Text #1
    ID : 6
    Format : Timed Text
    Muxing mode : sbtl
    Codec ID : tx3g
    Duration : 1h 27mn
    Bit rate mode : Variable
    Bit rate : 0 bps
    Stream size : 224 Bytes (0%)
    Title : Russian Forced, iTunes
    Language : Russian
    Default : Yes
    Forced : Yes
    Alternate group : 2
    Encoded date : UTC 2016-02-15 08:13:05
    Tagged date : UTC 2016-02-15 08:13:11
    Subtitles For : 2,5
    Full Alternative : 7
    Text #2
    ID : 7
    Format : Timed Text
    Muxing mode : sbtl
    Codec ID : tx3g
    Duration : 1h 27mn
    Bit rate mode : Variable
    Bit rate : 74 bps
    Stream size : 47.7 KiB (0%)
    Title : RussianiTunes
    Language : Russian
    Default : No
    Forced : No
    Alternate group : 2
    Encoded date : UTC 2016-02-15 08:13:05
    Tagged date : UTC 2016-02-15 08:13:11
    Subtitles For : 2,5
    Forced Alternative : 6
    Text #3
    ID : 8
    Format : Timed Text
    Muxing mode : sbtl
    Codec ID : tx3g
    Duration : 1h 27mn
    Bit rate mode : Variable
    Bit rate : 76 bps
    Stream size : 49.1 KiB (0%)
    Title : Ukrainian iTunes
    Language : Ukrainian
    Default : No
    Forced : No
    Alternate group : 2
    Encoded date : UTC 2016-02-15 08:13:05
    Tagged date : UTC 2016-02-15 08:13:11
    Menu #1
    00:00:00.000 : 1
    00:05:17.000 : 2
    00:07:56.000 : 3
    00:11:01.000 : 4
    00:13:33.000 : 5
    00:17:47.000 : 6
    00:20:53.000 : 7
    00:23:25.000 : 8
    00:25:33.000 : 9
    00:28:05.000 : 10
    00:32:33.000 : 11
    00:36:20.000 : 12
    00:41:10.000 : 13
    00:44:16.000 : 14
    00:47:53.000 : 15
    00:51:43.000 : 16
    00:55:25.000 : 17
    01:00:10.000 : 18
    01:03:22.000 : 19
    01:04:48.000 : 20
    01:08:53.999 : 21
    01:12:19.000 : 22
    01:16:09.000 : 23
    01:17:15.000 : 24
    Menu #2
    ID : 9
    Codec ID : text
    Duration : 1h 28mn
    Language : English
    Encoded date : UTC 2016-02-15 08:13:13
    Tagged date : UTC 2016-02-15 08:13:13
    Menu For : 1
    00:00:00.000 : 1
    00:05:17.000 : 2
    00:07:56.000 : 3
    00:11:01.000 : 4
    00:13:33.000 : 5
    00:17:47.000 : 6
    00:20:53.000 : 7
    00:23:25.000 : 8
    00:25:33.000 : 9
    00:28:05.000 : 10
    00:32:33.000 : 11
    00:36:20.000 : 12
    00:41:10.000 : 13
    00:44:16.000 : 14
    00:47:53.000 : 15
    00:51:43.000 : 16
    00:55:25.000 : 17
    01:00:10.000 : 18
    01:03:22.000 : 19
    01:04:48.000 : 20
    01:08:53.999 : 21
    01:12:19.000 : 22
    01:16:09.000 : 23
    01:17:15.000 : 24
    Bit rate mode : VBR

    Скриншоты

    -

    Релиз подготовлен для просмотра на Apple TV, iPad, iPhone, iPod Touch.
    Для просмотра данного релиза на компьютере с ОС Windows рекомендуется использовать VLC media player
    Скачать .torrent

    Скачать торрент-файл бесплатно и на максимальной скорости!

    Как скачивать? · Что такое торрент? · Рейтинг и ограничения

    !ВНИМАНИЕ!
    Сайт не распространяет и не хранит электронные версии произведений, а занимается лишь лишь предоставлением доступа к создаваемому пользователями каталогу ссылок на торрент-файлы, которые содержат только списки хеш-сумм, убедительная просьба с жалобами обращаться напрямую к пользователю. Файлы для обмена на трекере предоставлены пользователями сайта, и администрация не несёт ответственности за их содержание. Просьба не заливать файлы, защищенные авторскими правами, а также файлы нелегального содержания!


    _________________
    [Профиль] [ЛС]
    Показать сообщения:    
    Ответить на тему

    Текущее время: Сегодня, в 20:43

    Часовой пояс: GMT + 2



    Вы не можете начинать темы
    Вы не можете отвечать на сообщения
    Вы не можете редактировать свои сообщения
    Вы не можете удалять свои сообщения
    Вы не можете голосовать в опросах
    Вы не можете прикреплять файлы к сообщениям
    Вы не можете скачивать файлы