BitTorrentTracker PerecTracker.org
BitTorrentTracker PerecTracker.org
    
Регистрация  ·  Вход
 
 · 
Забыли пароль?

  • Дэдпул / Deadpool (Тим Миллер) [2016, Фантастика, Боевик] CamRip

    Ответить на тему
     
    Автор Сообщение

    BOSS

    Создавать темы 15-Фев-2016 12:37

           

    [Цитировать]

    Дэдпул / Deadpool (2016) CamRip-
    Производство: США, Marvel Enterprises, TSG Entertainment, Twentieth Century Fox Film Corporation
    Жанр: Фантастика, Боевик
    Режиссер: Тим Миллер
    Продюсер: Саймон Кинберг, Райан Рейнольдс, Лорен Шулер Доннер
    Актеры: Райан Рейнольдс, Морена Баккарин, Джина Карано, ТиДжей Миллер, Эд Скрейн, Рэйчел Шин, Брианна Хилдебранд, Андре Трикоте, Тэйлор Хиксон, Джед Риис
    Описание:
    Уэйд Уилсон — наемник. Будучи побочным продуктом программы вооруженных сил под названием «Оружие Х», Уилсон приобрел невероятную силу, проворство и исцеляющий фактор. Но страшной ценой: его клеточная структура постоянно меняется, а его здравомыслие сомнительно. Все чего Уилсон хочет — это держаться на плаву в социальной выгребной яме. Но течение в ней слишком быстрое.
    Продолжительность: 01:36:27
    Качество видео: CamRip
    Перевод: Дублированный
    Видео: MPEG4, XviD, 720x404 (16:9), 23.976 fps, 1 874 Kbps (0.269 bit/pixel)
    Аудио: MP3, 44.1 KHz, 2 ch, 128 Kbps, CBR
    Сэмпл

    Mediainfo:

    Формат : AVI
    Формат/Информация : Audio Video Interleave
    Профиль формата : OpenDML
    Размер файла : 1,36 Гбайт
    Продолжительность : 1 ч. 36 м.
    Общий поток : 2018 Кбит/сек
    Видео
    Идентификатор : 0
    Формат : MPEG-4 Visual
    Профиль формата : Simple@L3
    Параметр BVOP формата : Нет
    Параметр QPel формата : Нет
    Параметр GMC формата : Без точки перехода
    Параметр матрицы формата : Default (H.263)
    Идентификатор кодека : XVID
    Идентификатор кодека/Подсказка : XviD
    Продолжительность : 1 ч. 36 м.
    Битрейт : 1874 Кбит/сек
    Ширина : 720 пикселей
    Высота : 404 пикселя
    Соотношение сторон : 16:9
    Частота кадров : 23,976 кадра/сек
    Частота кадров в оригинале : 23,000 кадра/сек
    Цветовое пространство : YUV
    Субдискретизация насыщенности : 4:2:0
    Битовая глубина : 8 бит
    Тип развёртки : Прогрессивная
    Метод сжатия : С потерями
    Бит/(Пиксели*Кадры) : 0.269
    Размер потока : 1,26 Гбайт (93%)
    Библиотека кодирования : XviD 1.2.1 (UTC 2008-12-04)
    Аудио
    Идентификатор : 1
    Формат : MPEG Audio
    Версия формата : Version 1
    Профиль формата : Layer 3
    Режим : Joint stereo
    Идентификатор кодека : 55
    Идентификатор кодека/Подсказка : MP3
    Продолжительность : 1 ч. 36 м.
    Вид битрейта : Постоянный
    Битрейт : 128 Кбит/сек
    Каналы : 2 канала
    Частота : 44,1 КГц
    Метод сжатия : С потерями
    Размер потока : 88,3 Мбайт (6%)
    Выравнивание : Соединение по промежуткам
    Продолжительность промежутка : 26 мс. (0,63 видеокадр)
    Библиотека кодирования : LAME3.98.2
    Скриншоты:
    Скачать .torrent

    Скачать торрент-файл бесплатно и на максимальной скорости!

    Как скачивать? · Что такое торрент? · Рейтинг и ограничения

    !ВНИМАНИЕ!
    Сайт не распространяет и не хранит электронные версии произведений, а занимается лишь лишь предоставлением доступа к создаваемому пользователями каталогу ссылок на торрент-файлы, которые содержат только списки хеш-сумм, убедительная просьба с жалобами обращаться напрямую к пользователю. Файлы для обмена на трекере предоставлены пользователями сайта, и администрация не несёт ответственности за их содержание. Просьба не заливать файлы, защищенные авторскими правами, а также файлы нелегального содержания!

    [Профиль] [ЛС]
    Показать сообщения:    
    Ответить на тему

    Текущее время: Сегодня, в 20:39

    Часовой пояс: GMT + 2



    Вы не можете начинать темы
    Вы не можете отвечать на сообщения
    Вы не можете редактировать свои сообщения
    Вы не можете удалять свои сообщения
    Вы не можете голосовать в опросах
    Вы не можете прикреплять файлы к сообщениям
    Вы не можете скачивать файлы