BitTorrentTracker PerecTracker.org
BitTorrentTracker PerecTracker.org
    
Регистрация  ·  Вход
 
 · 
Забыли пароль?

  • Большой Жорж / Le Grand Georges (Франсуа Мартуре / Francois Marthouret / François Marthouret) [2011, Франция, историческая драма, DVB] Original (Fre) + Sub (rus)

    Ответить на тему
     
    Автор Сообщение

    rechyn

    Создавать темы 15-Фев-2016 08:02

           

    [Цитировать]

    Большой Жорж
    Le Grand Georges-Страна: Франция
    Жанр: историческая драма
    Год выпуска: 2011
    Продолжительность: 01:34:16Перевод: Субтитры (перевод А.Вижье, Éclair Group)
    Cубтитры: русские, английские, французские, немецкие, нидерландские, румынские
    Оригинальная аудиодорожка: французский
    Режиссер: Франсуа Мартуре / François Marthouret
    В ролях: Ксавье Галле / Xavier Gallais (Georges Guingouin), Мари Денарно / Marie Denarnaud (Henriette Guingouin), Сильви Пьер-Броссолетт / Sylvie Pierre-Brossolette (Françoise), Тома Шаброль / Thomas Chabrol (Léon Rouvais), Венсан Винтерхальтер / Vincent Winterhalter (Malot)
    Описание: В основе фильма лежат реальные события. Жизнь этого человека напоминает приключенческий роман. Жорж Генгуэн (1913-2005), получивший прозвища "Большой Жорж" и "Префект маки", известен как первый участник Сопротивления во Франции, основатель группы партизан-маки "Маверикс" в Лимузене летом 1940 года. Мэр города Лиможа в 1945-47 годах. Этот фильм дает уникальную возможность воздать дань этому неординарному и смелому человеку.
    Герой II Мировой войны Жорж Генгуэн в начале 1950-х годов стал фигурантом двух резонансных судебных дел. Его бывшие соратники-коммунисты запятнали его имя худшим из возможных способов - его обвинили в преступлениях, совершенных во время оккупации, и т.н. "жестоких чистках" в 1944 году после Освобождения. Избитый, брошенный в тюрьму, заклейменный общественным презрением, этот человек не был сломлен ни физически, ни морально. После оправдания и полной реабилитации он, как и до войны, преподавал в начальной школе французскую литературу. В июне 2005 года, за 4 месяца до смерти, он был возведен в ранг Командора ордена почетного легиона.
    Доп. информация: Hot Bird (13.0°E) TV5MONDE Europe DVB-S

    Качество видео: DVB
    Формат видео: TS
    Видео: MPEG Video 2, 720x576@1024x576 (16:9), 25 fps, ~3276 kbps avg, 0.316 bit/pixel
    Аудио: MPEG Audio 2, 2 ch, 48 kHz, 192 kbps - французский
    Формат субтитров: PGS

    MediaInfo

    ОбщееИдентификатор : 1 (0x1)Полное имя : [apreder]Le_grand_Georges(2011)DVB.tsФормат : MPEG-TSРазмер файла : 2,40 ГбайтПродолжительность : 1 ч. 34 м.Режим общего битрейта : ПеременныйОбщий поток : 3650 Кбит/секМаксимальный общий битрейт : 35,5 Мбит/сек
    ВидеоИдентификатор : 4113 (0x1011)Идентификатор меню : 1 (0x1)Формат : MPEG VideoВерсия формата : Version 2Профиль формата : Main@MainПараметр BVOP формата : ДаПараметр матрицы формата : ВыборочнаяПараметр GOP формата : M=4, N=12Format_Settings_PictureStructure : FrameИдентификатор кодека : 2Продолжительность : 1 ч. 34 м.Вид битрейта : ПеременныйБитрейт : 3276 Кбит/секШирина : 720 пикселейВысота : 576 пикселейСоотношение сторон : 16:9Частота кадров : 25,000 кадров/секСтандарт вещания : PALЦветовое пространство : YUVСубдискретизация насыщенности : 4:2:0Битовая глубина : 8 битТип развёртки : ЧересстрочнаяПорядок развёртки : Верхнее поле первоеМетод сжатия : С потерямиБит/(Пиксели*Кадры) : 0.316Временной код первого кадра : 00:00:00:00Оригинал временного кода : Group of pictures headerРазмер потока : 2,16 Гбайт (90%)
    АудиоИдентификатор : 4352 (0x1100)Идентификатор меню : 1 (0x1)Формат : MPEG AudioВерсия формата : Version 1Профиль формата : Layer 2Идентификатор кодека : 4Продолжительность : 1 ч. 34 м.Вид битрейта : ПостоянныйБитрейт : 192 Кбит/секКаналы : 2 каналаЧастота : 48,0 КГцМетод сжатия : С потерямиРазмер потока : 129 Мбайт (5%)Язык : French
    Текст #1Идентификатор : 4608 (0x1200)Идентификатор меню : 1 (0x1)Формат : PGSИдентификатор кодека : 144Продолжительность : 1 ч. 34 м.Задержка видео : 1 с. 840 мс.Язык : Russian
    Текст #2Идентификатор : 4609 (0x1201)Идентификатор меню : 1 (0x1)Формат : PGSИдентификатор кодека : 144Продолжительность : 1 ч. 34 м.Задержка видео : 1 с. 840 мс.Язык : English
    Текст #3Идентификатор : 4610 (0x1202)Идентификатор меню : 1 (0x1)Формат : PGSИдентификатор кодека : 144Язык : French
    Текст #4Идентификатор : 4611 (0x1203)Идентификатор меню : 1 (0x1)Формат : PGSИдентификатор кодека : 144Продолжительность : 1 ч. 34 м.Задержка видео : 1 с. 840 мс.Язык : German
    Текст #5Идентификатор : 4612 (0x1204)Идентификатор меню : 1 (0x1)Формат : PGSИдентификатор кодека : 144Продолжительность : 1 ч. 34 м.Задержка видео : 1 с. 840 мс.Язык : Dutch
    Текст #6Идентификатор : 4613 (0x1205)Идентификатор меню : 1 (0x1)Формат : PGSИдентификатор кодека : 144Продолжительность : 1 ч. 34 м.Задержка видео : 1 с. 840 мс.Язык : Romanian

    Скриншот c названием фильма

    Скриншоты

    Резервные скриншоты


    -[1'066]
    Скачать .torrent

    Скачать торрент-файл бесплатно и на максимальной скорости!

    Как скачивать? · Что такое торрент? · Рейтинг и ограничения

    !ВНИМАНИЕ!
    Сайт не распространяет и не хранит электронные версии произведений, а занимается лишь лишь предоставлением доступа к создаваемому пользователями каталогу ссылок на торрент-файлы, которые содержат только списки хеш-сумм, убедительная просьба с жалобами обращаться напрямую к пользователю. Файлы для обмена на трекере предоставлены пользователями сайта, и администрация не несёт ответственности за их содержание. Просьба не заливать файлы, защищенные авторскими правами, а также файлы нелегального содержания!


    _________________
    [Профиль] [ЛС]
    Показать сообщения:    
    Ответить на тему

    Текущее время: Сегодня, в 18:22

    Часовой пояс: GMT + 2



    Вы не можете начинать темы
    Вы не можете отвечать на сообщения
    Вы не можете редактировать свои сообщения
    Вы не можете удалять свои сообщения
    Вы не можете голосовать в опросах
    Вы не можете прикреплять файлы к сообщениям
    Вы не можете скачивать файлы