BitTorrentTracker PerecTracker.org
BitTorrentTracker PerecTracker.org
    
Регистрация  ·  Вход
 
 · 
Забыли пароль?

  • Второе происхождение / Segon origen (Карлес Порта / Carles Porta) [2015, Испания, Великобритания, Приключения, ужасы, фантастика, HDRip] DVO (Galina Vasyukova & datynet)

    Ответить на тему
     
    Автор Сообщение

    rechyn

    Создавать темы 15-Фев-2016 03:50

           

    [Цитировать]

    Второе рождение / Второе происхождение/ Segon origenСтрана: Испания, Великобритания
    Жанр: Приключения, ужасы, фантастика
    Год выпуска: 2015
    Продолжительность: 01:46:15
    Перевод: Любительский (двухголосый закадровый) Galina Vasyukova & datynet; перевод: Куценко
    Cубтитры: нет
    Режиссер: Карлес Порта / Carles Porta
    В ролях: Рэйчел Херд-Вуд, Андрес Батиста, Серхи Лопес, Андро Креспо, Филип Херд-Вуд, Мариета Ороско, Альберт Прат
    Описание: Всё человечество исчезло. Лишь двое выживших, 20-летняя Альба и 10-летний Дидак, остались в разрушенном мире. Для того, чтобы выжить на этой планете, состоящей из руин, они пытаются всё начать с нуля. Вместе они должны будут не только спасти собственные жизни, но и исправить грехи всего человечества. Когда всё на свете кажется потерянным, любовь — это единственное руководство по выживанию.
    Доп. информация:

    Сэмпл: http://sendfile.su/1203808
    Качество видео: HDRip
    Формат видео: AVI
    Видео: 720x302 (2.38:1), 24.000 fps, ATI YVU12 4:2:0 Planar ~1694 kbps avg, 0.32 bit/pixel
    Аудио: 48 kHz, MPEG Layer 3, 2 ch, ~192.00 kbps avg

    MediaInfo

    General
    Complete name : E:\Segundo origen (2015) [HDrip-XviD-AC3][Castellano]\Segundo origen 2015.avi
    Format : AVI
    Format/Info : Audio Video Interleave
    File size : 1.41 GiB
    Duration : 1h 46mn
    Overall bit rate : 1 896 Kbps
    Writing application : VirtualDubMod 1.5.10.2 (build 2542/release)
    Writing library : VirtualDub build 35576/release
    Video
    ID : 0
    Format : MPEG-4 Visual
    Format profile : Advanced Simple@L5
    Format settings, BVOP : 2
    Format settings, QPel : No
    Format settings, GMC : No warppoints
    Format settings, Matrix : Default (MPEG)
    Codec ID : XVID
    Codec ID/Hint : XviD
    Duration : 1h 46mn
    Bit rate : 1 695 Kbps
    Width : 720 pixels
    Height : 302 pixels
    Display aspect ratio : 2.40:1
    Frame rate : 24.000 fps
    Color space : YUV
    Chroma subsampling : 4:2:0
    Bit depth : 8 bits
    Scan type : Progressive
    Compression mode : Lossy
    Bits/(Pixel*Frame) : 0.325
    Stream size : 1.26 GiB (89%)
    Writing library : XviD 64
    Audio
    ID : 1
    Format : MPEG Audio
    Format version : Version 1
    Format profile : Layer 3
    Codec ID : 55
    Codec ID/Hint : MP3
    Duration : 1h 46mn
    Bit rate mode : Constant
    Bit rate : 192 Kbps
    Channel(s) : 2 channels
    Sampling rate : 48.0 KHz
    Compression mode : Lossy
    Stream size : 146 MiB (10%)
    Interleave, duration : 42 ms (1.00 video frame)
    Interleave, preload duration : 500 ms

    Скриншот c названием фильма

    Скриншоты














    Скачать .torrent

    Скачать торрент-файл бесплатно и на максимальной скорости!

    Как скачивать? · Что такое торрент? · Рейтинг и ограничения

    !ВНИМАНИЕ!
    Сайт не распространяет и не хранит электронные версии произведений, а занимается лишь лишь предоставлением доступа к создаваемому пользователями каталогу ссылок на торрент-файлы, которые содержат только списки хеш-сумм, убедительная просьба с жалобами обращаться напрямую к пользователю. Файлы для обмена на трекере предоставлены пользователями сайта, и администрация не несёт ответственности за их содержание. Просьба не заливать файлы, защищенные авторскими правами, а также файлы нелегального содержания!


    _________________
    [Профиль] [ЛС]
    Показать сообщения:    
    Ответить на тему

    Текущее время: Сегодня, в 19:49

    Часовой пояс: GMT + 2



    Вы не можете начинать темы
    Вы не можете отвечать на сообщения
    Вы не можете редактировать свои сообщения
    Вы не можете удалять свои сообщения
    Вы не можете голосовать в опросах
    Вы не можете прикреплять файлы к сообщениям
    Вы не можете скачивать файлы