Register  ·  Log in
Forgot password?

  • Правила жизни французского парня / Libre et assoupi (Бенжамен Гедж / Benjamin Guedj) [2014, Франция, комедия, DVB] MVO (Марафон)

    Reply to topic
    Author Message


    Post 15-Feb-2016 04:50



    Правила жизни французского парня / Libre et assoupi-Страна: Франция
    Жанр: комедия
    Год выпуска: 2013
    Продолжительность: 01:28:59-Перевод: Профессиональный (многоголосый закадровый) - Студия "Марафон"
    Cубтитры: нет
    Оригинальная аудиодорожка: нет-Режиссер: Бенжамен Гедж / Benjamin Guedj
    В ролях: Батист Лекаплен, Шарлотта Лебон, Феликс Моати, Дени Подалидес, Изабель Канделье, Жан-Ив Бертело, Сулиан Брахим, Дэвид Байо, Жан-Мишель Лами, Бернар Мене...- | Релиз: -Описание: Любимое занятие Себастьяна — ничегонеделание. Его диван для него целый мир: с него он и предпочитает наблюдать за своими друзьями по квартире — красивой независимой Анной и нерешительным Бруно. Лежа на диване Себастьян черпает жизненный опыт из книг и видеоигр. Не выходя из квартиры, он предается самым незаурядным мечтам и фантазиям. Себастьян умеет получать удовольствие от простых вещей — в этом его главная заслуга, но в этом же и его проблема.
    В какой-то момент он тоже начинает действовать… немного и по-своему.-Семпл:Тип релиза: DVB
    Контейнер: MPG
    Видео: 720x576 (16:9) @ 1024x576, 25.000 fps, MPEG-2 Video, ~1909 Kbps, 0.184 bits/pixel
    Аудио: Русский, 48.0 KHz, AC3, 6 ch, 448 Kbps


    GeneralComplete name : Правила жизни французского парня 2014 MVO Марафон.mpgFormat : MPEG-PSFile size : 1.50 GiBDuration : 1h 28mnOverall bit rate mode : VariableOverall bit rate : 2 405 Kbps
    VideoID : 224 (0xE0)Format : MPEG VideoFormat version : Version 2Format profile : Main@MainFormat settings, BVOP : YesFormat settings, Matrix : CustomFormat settings, GOP : VariableFormat settings, picture structure : FrameDuration : 1h 28mnBit rate mode : VariableBit rate : 1 909 KbpsMaximum bit rate : 15.0 MbpsWidth : 720 pixelsHeight : 576 pixelsDisplay aspect ratio : 16:9Frame rate : 25.000 fpsStandard : PALColor space : YUVChroma subsampling : 4:2:0Bit depth : 8 bitsScan type : InterlacedScan order : Top Field FirstCompression mode : LossyBits/(Pixel*Frame) : 0.184Time code of first frame : 00:00:00:00Time code source : Group of pictures headerGOP, Open/Closed : OpenGOP, Open/Closed of first frame : ClosedStream size : 1.19 GiB (79%)
    AudioID : 189 (0xBD)-128 (0x80)Format : AC-3Format/Info : Audio Coding 3Mode extension : CM (complete main)Format settings, Endianness : BigMuxing mode : DVD-VideoDuration : 1h 28mnBit rate mode : ConstantBit rate : 448 KbpsChannel(s) : 6 channelsChannel positions : Front: L C R, Side: L R, LFESampling rate : 48.0 KHzFrame rate : 31.250 fps (1536 spf)Compression mode : LossyStream size : 285 MiB (19%)


    Download .torrent

    Download free and at maximum speed!

    How to Download? · What is a torrent? · Ratings and Limitations

    The site does not extend and does not store electronic(digital) versions of products, and only gives access to a reference catalogue created by users on torrent-files which contain only lists of the hash-sums, the earnest entreaty, with complaints(abuse) to access directly to the user. Files for an exchange on tracker are given by users of a site, and the administration does not bear the responsibility for their maintenance. The request to not fill in the files protected by copyrights, and also files of the illegal maintenance!

    [Profile] [PM]
    Display posts from previous:    
    Reply to topic

    The time now is: Today 10:13

    All times are GMT + 3 Hours

    You cannot post new topics in this forum
    You cannot reply to topics in this forum
    You cannot edit your posts in this forum
    You cannot delete your posts in this forum
    You cannot vote in polls in this forum
    You cannot attach files in this forum
    You cannot download files in this forum