BitTorrentTracker PerecTracker.org
BitTorrentTracker PerecTracker.org
    
Регистрация  ·  Вход
 
 · 
Забыли пароль?

  • Потерянный север / Perdiendo el norte (Начо Г. Велилья / Nacho G. Velilla) [2015, Испания, комедия, HDRip] VO (PashaUp) + Sub Rus

    Ответить на тему
     
    Автор Сообщение

    rechyn

    Создавать темы 15-Фев-2016 03:50

           

    [Цитировать]

    Потерянный север / Perdiendo el norte
    Страна: Испания
    Жанр: комедия
    Год выпуска: 2015
    Продолжительность: 01:42:07
    Перевод: Одноголосый закадровый PashaUp
    Cубтитры: русские
    Оригинальная аудиодорожка: испанский
    Режиссер: Начо Г. Велилья / Nacho G. Velilla
    В ролях: Йон Гонсалес, Хулиан Лопес, Бланка Суарес, Малена Альтерио, Урсула Корберо, Юн Башир, Хавьер Камара, Кармен Мачи, Хосе Сакристан
    Описание: Уго и Браульо — двое молодых испанцев с высшим образованием. Отчаявшись найти работу у себя на родине, они отправляются в Германию, потому что именно там, как сказано в одной рекламной телепередаче, «нужны квалифицированные специалисты». Однако и в Берлине всё идет не так гладко. Энтузиазм друзей уменьшается, а обещанная «немецкая мечта» похожа на страшный сон. Ведь если ты не нужен здесь, это совсем не значит, что тебя ждут где-то там…
    Сэмпл: http://multi-up.com/1088941
    Качество видео: HDRip (Perdiendo El Norte [MicroHD 1080 px][AC3 5.1-DTS-HD 5.1-Castellano+Subs][ES-EN])
    Формат видео: AVI
    Видео: 720x304 (2.37:1), 25 fps, XviD build 64 ~2297 kbps avg, 0.42 bit/pixel
    Аудио: 48 kHz, AC3 Dolby Digital, 2/0 (L,R) ch, ~192 kbps Russian (PashaUp)
    Аудио 2: 48 kHz, AC3 Dolby Digital, 3/2 (L,C,R,l,r) + LFE ch, ~384 kbps Spanish

    MediaInfo

    Формат : AVI
    Формат/Информация : Audio Video Interleave
    Профиль формата : OpenDML
    Размер файла : 2,05 Гбайт
    Продолжительность : 1 ч. 42 м.
    Общий поток : 2881 Кбит/сек
    Программа кодирования : VirtualDubMod 1.5.10.3 (build 2550/release)
    Библиотека кодирования : VirtualDubMod build 2550/release
    Видео
    Идентификатор : 0
    Формат : xvid
    Идентификатор кодека : xvid
    Продолжительность : 1 ч. 42 м.
    Битрейт : 2286 Кбит/сек
    Ширина : 720 пикселей
    Высота : 304 пикселя
    Соотношение сторон : 2,35:1
    Частота кадров : 25,000 кадров/сек
    Бит/(Пиксели*Кадры) : 0.418
    Размер потока : 1,63 Гбайт (79%)
    Аудио #1
    Идентификатор : 1
    Формат : AC-3
    Формат/Информация : Audio Coding 3
    Расширение режима : CM (complete main)
    Параметр Endianness формата : Big
    Идентификатор кодека : 2000
    Продолжительность : 1 ч. 42 м.
    Вид битрейта : Постоянный
    Битрейт : 192 Кбит/сек
    Каналы : 2 канала
    Расположение каналов : Front: L R
    Частота : 48,0 КГц
    Частота кадров : 31,250 кадров/сек (1536 spf)
    Метод сжатия : С потерями
    Размер потока : 140 Мбайт (7%)
    Выравнивание : Разделение по промежуткам
    Продолжительность промежутка : 40 мс. (1,00 видеокадр)
    Время предзагрузки промежутка : 500 мс.
    Аудио #2
    Идентификатор : 2
    Формат : AC-3
    Формат/Информация : Audio Coding 3
    Расширение режима : CM (complete main)
    Параметр Endianness формата : Big
    Идентификатор кодека : 2000
    Продолжительность : 1 ч. 42 м.
    Вид битрейта : Постоянный
    Битрейт : 384 Кбит/сек
    Каналы : 6 каналов
    Расположение каналов : Front: L C R, Side: L R, LFE
    Частота : 48,0 КГц
    Частота кадров : 31,250 кадров/сек (1536 spf)
    Метод сжатия : С потерями
    Размер потока : 280 Мбайт (13%)
    Выравнивание : Разделение по промежуткам
    Продолжительность промежутка : 40 мс. (1,00 видеокадр)
    Время предзагрузки промежутка : 500 мс.

    Скриншоты

    Скачать .torrent

    Скачать торрент-файл бесплатно и на максимальной скорости!

    Как скачивать? · Что такое торрент? · Рейтинг и ограничения

    !ВНИМАНИЕ!
    Сайт не распространяет и не хранит электронные версии произведений, а занимается лишь лишь предоставлением доступа к создаваемому пользователями каталогу ссылок на торрент-файлы, которые содержат только списки хеш-сумм, убедительная просьба с жалобами обращаться напрямую к пользователю. Файлы для обмена на трекере предоставлены пользователями сайта, и администрация не несёт ответственности за их содержание. Просьба не заливать файлы, защищенные авторскими правами, а также файлы нелегального содержания!


    _________________
    [Профиль] [ЛС]
    Показать сообщения:    
    Ответить на тему

    Текущее время: Сегодня, в 09:59

    Часовой пояс: GMT + 2



    Вы не можете начинать темы
    Вы не можете отвечать на сообщения
    Вы не можете редактировать свои сообщения
    Вы не можете удалять свои сообщения
    Вы не можете голосовать в опросах
    Вы не можете прикреплять файлы к сообщениям
    Вы не можете скачивать файлы