BitTorrentTracker PerecTracker.org
BitTorrentTracker PerecTracker.org
    
Регистрация  ·  Вход
 
 · 
Забыли пароль?

  • 007: СПЕКТР / Spectre (Сэм Мендес / Sam Mendes) [2015, США, Великобритания, боевик, триллер, приключения, BDRip 720p] Dub + Sub Rus, Eng + Original Eng

    Ответить на тему
     
    Автор Сообщение

    Flirldrerve

    Создавать темы 14-Фев-2016 23:38

           

    [Цитировать]

    007: СПЕКТР / Spectre
    Страна: США, Великобритания
    Студия: B24, Columbia Pictures, Danjaq
    Жанр: боевик, триллер, приключения
    Год выпуска: 2015
    Продолжительность: 02:28:07
    Перевод: Профессиональный (дублированный)
    Cубтитры: Rus, Eng
    Оригинальная аудиодорожка: английский
    Режиссер: Сэм Мендес / Sam Mendes
    В ролях: Дэниэл Крэйг, Кристоф Вальц, Леа Сейду, Рэйф Файнс, Моника Беллуччи, Бен Уишоу, Наоми Харрис, Дэйв Батиста, Эндрю Скотт, Рори Киннер, Еспер Кристенсен, Алессандро Кремона, Стефани Сигман, Теноч Уэрта, Адриана Пас, Доменико Фортунато, Йен Бонар, Там Уильямс, Ричард Бенхем, Пип Картер
    Описание: Зашифрованное послание из неизвестного источника выводит Бонда на след зловещей глобальной организации под кодовым названием СПЕКТР, в то время как М пытается спасти секретную разведывательную службу от ликвидации.

    Тип релиза: BDRip 720p
    Контейнер: MKV
    Видео: MPEG-4 AVC, 6500 Кбит/с, 1280x536, 23,976 fps
    Аудио: Rus, DTS, 768 kb/s (6 ch), 48 kHz
    Аудио 2: Eng, AC3, 640 kb/s (6 ch), 48 kHz
    Формат субтитров: softsub (SRT)

    MediaInfo

    x264 [info]: frame I:1585 Avg QP:14.13 size:120433
    x264 [info]: frame P:48531 Avg QP:15.77 size: 53347
    x264 [info]: frame B:162956 Avg QP:17.03 size: 27259
    Format : Matroska
    Format version : Version 4 / Version 2
    File size : 8.19 GiB
    Duration : 2h 28mn
    Overall bit rate : 7 912 Kbps
    Movie name : 007: СПЕКТР. (Tonik)
    Encoded date : UTC 2016-02-12 02:39:40
    Writing application : mkvmerge v7.1.0 ('Good Love') 64bit built on Jul 27 2014 13:06:55
    Writing library : libebml v1.3.0 + libmatroska v1.4.1
    _STATISTICS_WRITING_APP : mkvmerge v7.1.0 ('Good Love') 64bit built on Jul 27 2014 13:06:55
    _STATISTICS_WRITING_DATE_UTC : 2016-02-12 02:39:40
    _STATISTICS_TAGS : BPS DURATION NUMBER_OF_FRAMES NUMBER_OF_BYTES
    DURATION : 02:28:06.880000000
    NUMBER_OF_FRAMES : 833145
    NUMBER_OF_BYTES : 853140480
    Video
    ID : 1
    Format : AVC
    Format/Info : Advanced Video Codec
    Format profile : High@L4.1
    Format settings, CABAC : Yes
    Format settings, ReFrames : 12 frames
    Codec ID : V_MPEG4/ISO/AVC
    Duration : 2h 28mn
    Bit rate : 6 500 Kbps
    Width : 1 280 pixels
    Height : 536 pixels
    Display aspect ratio : 2.40:1
    Frame rate mode : Constant
    Frame rate : 23.976 fps
    Color space : YUV
    Chroma subsampling : 4:2:0
    Bit depth : 8 bits
    Scan type : Progressive
    Bits/(Pixel*Frame) : 0.395
    Stream size : 6.57 GiB (80%)
    Writing library : x264 core 148 r2597 e86f3a1
    Encoding settings : cabac=1 / ref=12 / deblock=1:-3:-3 / analyse=0x3:0x113 / me=umh / subme=11 / psy=1 / psy_rd=0.90:0.05 / mixed_ref=1 / me_range=32 / chroma_me=1 / trellis=2 / 8x8dct=1 / cqm=0 / deadzone=21,11 / fast_pskip=0 / chroma_qp_offset=-3 / threads=12 / lookahead_threads=3 / sliced_threads=0 / nr=0 / decimate=0 / interlaced=0 / bluray_compat=0 / constrained_intra=0 / bframes=10 / b_pyramid=2 / b_adapt=2 / b_bias=0 / direct=3 / weightb=1 / open_gop=0 / weightp=2 / keyint=240 / keyint_min=24 / scenecut=40 / intra_refresh=0 / rc_lookahead=40 / rc=2pass / mbtree=0 / bitrate=6500 / ratetol=1.0 / qcomp=0.70 / qpmin=0 / qpmax=69 / qpstep=4 / cplxblur=20.0 / qblur=0.5 / vbv_maxrate=40000 / vbv_bufsize=30000 / nal_hrd=none / filler=0 / ip_ratio=1.30 / pb_ratio=1.20 / aq=3:0.85
    Language : English
    Default : Yes
    Forced : No
    _STATISTICS_WRITING_APP : mkvmerge v7.1.0 ('Good Love') 64bit built on Jul 27 2014 13:06:55
    _STATISTICS_WRITING_DATE_UTC : 2016-02-12 02:39:40
    _STATISTICS_TAGS : BPS DURATION NUMBER_OF_FRAMES NUMBER_OF_BYTES
    DURATION : 02:28:06.878000000
    NUMBER_OF_FRAMES : 213072
    NUMBER_OF_BYTES : 7221833376
    Audio #1
    ID : 2
    Format : DTS
    Format/Info : Digital Theater Systems
    Mode : 16
    Format settings, Endianness : Big
    Codec ID : A_DTS
    Duration : 2h 28mn
    Bit rate mode : Constant
    Bit rate : 768 Kbps
    Channel(s) : 6 channels
    Channel positions : Front: L C R, Side: L R, LFE
    Sampling rate : 48.0 KHz
    Bit depth : 24 bits
    Compression mode : Lossy
    Stream size : 814 MiB (10%)
    Language : Russian
    Default : Yes
    Forced : No
    Audio #2
    ID : 3
    Format : AC-3
    Format/Info : Audio Coding 3
    Mode extension : CM (complete main)
    Format settings, Endianness : Big
    Codec ID : A_AC3
    Duration : 2h 28mn
    Bit rate mode : Constant
    Bit rate : 640 Kbps
    Channel(s) : 6 channels
    Channel positions : Front: L C R, Side: L R, LFE
    Sampling rate : 48.0 KHz
    Bit depth : 16 bits
    Compression mode : Lossy
    Stream size : 678 MiB (8%)
    Language : English
    Default : No
    Forced : No
    Text #1
    ID : 4
    Format : UTF-8
    Codec ID : S_TEXT/UTF8
    Codec ID/Info : UTF-8 Plain Text
    Title : Forced
    Language : Russian
    Default : Yes
    Forced : No
    Text #2
    ID : 5
    Format : UTF-8
    Codec ID : S_TEXT/UTF8
    Codec ID/Info : UTF-8 Plain Text
    Language : Russian
    Default : No
    Forced : No
    Text #3
    ID : 6
    Format : UTF-8
    Codec ID : S_TEXT/UTF8
    Codec ID/Info : UTF-8 Plain Text
    Language : English
    Default : No
    Forced : No
    Menu
    00:00:00.000 : en:Chapter 01
    00:06:09.118 : en:Chapter 03
    00:13:04.784 : en:Chapter 05
    00:18:58.470 : en:Chapter 07
    00:24:46.776 : en:Chapter 09
    00:28:04.057 : en:Chapter 11
    00:32:15.558 : en:Chapter 13
    00:36:58.591 : en:Chapter 15
    00:41:56.639 : en:Chapter 17
    00:46:13.145 : en:Chapter 19
    00:50:51.923 : en:Chapter 21
    00:53:43.220 : en:Chapter 23
    01:00:21.367 : en:Chapter 25
    01:06:48.212 : en:Chapter 27
    01:10:58.963 : en:Chapter 29
    01:15:14.092 : en:Chapter 31
    01:18:55.647 : en:Chapter 33
    01:26:11.040 : en:Chapter 35
    01:29:39.999 : en:Chapter 37
    01:36:43.547 : en:Chapter 39
    01:41:44.389 : en:Chapter 41
    01:49:06.414 : en:Chapter 43
    01:55:52.820 : en:Chapter 45
    01:59:39.213 : en:Chapter 47
    02:04:19.743 : en:Chapter 49
    02:09:28.510 : en:Chapter 51
    02:14:05.662 : en:Chapter 53
    02:19:42.374 : en:Chapter 55
    02:28:06.627 : en:Chapter 56

    Скриншоты

    Скачать .torrent

    Скачать торрент-файл бесплатно и на максимальной скорости!

    Как скачивать? · Что такое торрент? · Рейтинг и ограничения

    !ВНИМАНИЕ!
    Сайт не распространяет и не хранит электронные версии произведений, а занимается лишь лишь предоставлением доступа к создаваемому пользователями каталогу ссылок на торрент-файлы, которые содержат только списки хеш-сумм, убедительная просьба с жалобами обращаться напрямую к пользователю. Файлы для обмена на трекере предоставлены пользователями сайта, и администрация не несёт ответственности за их содержание. Просьба не заливать файлы, защищенные авторскими правами, а также файлы нелегального содержания!


    _________________
    [Профиль] [ЛС]
    Показать сообщения:    
    Ответить на тему

    Текущее время: Сегодня, в 20:03

    Часовой пояс: GMT + 2



    Вы не можете начинать темы
    Вы не можете отвечать на сообщения
    Вы не можете редактировать свои сообщения
    Вы не можете удалять свои сообщения
    Вы не можете голосовать в опросах
    Вы не можете прикреплять файлы к сообщениям
    Вы не можете скачивать файлы