BitTorrentTracker PerecTracker.org
BitTorrentTracker PerecTracker.org
    
Регистрация  ·  Вход
 
 · 
Забыли пароль?

  • Шеф Адам Джонс / Burnt (Джон Уэллс / John Wells) [2015, США, Комедия, Драма, HDRip] Dub (НТВ+)

    Ответить на тему
     
    Автор Сообщение

    rechyn

    Создавать темы 14-Фев-2016 23:38

           

    [Цитировать]

    -Шеф Адам Джонс / Burnt
    «Never underestimate a man with nothing to lose»--Страна: США
    Жанр: Комедия, Драма
    Год выпуска: 2015
    Продолжительность: 01:40:59-Перевод: Профессиональный (дублированный) НТВ+-Cубтитры: нет
    Оригинальная аудиодорожка: нет-Режиссер: Джон Уэллс / John Wells-В ролях: Брэдли Купер, Сиенна Миллер, Омар Си, Даниэль Брюль, Ума Турман, Алисия Викандер, Эмма Томпсон, Риккардо Скамарчио, Сэм Кили, Мэттью Рис, Стивен Кэмпбелл Мур, Лили Джеймс, Сара Грин, Элиза Ласовски, Джулиан Фёрт, Ричард Ранкин, Мартин Тренаман, Джоди Халс, Ричард Каннингэм, Ричард Эттли-Описание: В центре сюжета — история некогда знаменитого шеф-повара, который из-за своего пагубного пристрастия теряет собственный ресторан в Париже, пониженный в рейтинге до унизительных двух звезд. Решив не сдаваться, он вновь собирает свою команду, перестраивает лондонский ресторан и надеется получить три звезды.---Качество видео: HDRip
    Формат видео: AVI-Видео: XviD, 640x272 (2.35:1), 23.976 fps, ~835 kbps avg, 0.20 bit/pixel
    Аудио: 48 kHz, MP3, 2/0 (L,R) ch, ~128 kbps avg-

    MediaInfo

    Complete name : C:\Users\1\Desktop\РАЗДАЧИ\Burnt (2015) HDRip.avi
    Format : AVI
    Format/Info : Audio Video Interleave
    File size : 701 MiB
    Duration : 1h 40mn
    Overall bit rate : 971 Kbps
    Writing application : VirtualDubMod 1.5.10.2 (build 2540/release)
    Writing library : VirtualDubMod build 2540/release
    Video
    ID : 0
    Format : MPEG-4 Visual
    Format profile : Advanced Simple@L5
    Format settings, BVOP : 2
    Format settings, QPel : No
    Format settings, GMC : No warppoints
    Format settings, Matrix : Default (MPEG)
    Codec ID : XVID
    Codec ID/Hint : XviD
    Duration : 1h 40mn
    Bit rate : 833 Kbps
    Width : 640 pixels
    Height : 272 pixels
    Display aspect ratio : 2.35:1
    Frame rate : 23.976 (24000/1001) fps
    Color space : YUV
    Chroma subsampling : 4:2:0
    Bit depth : 8 bits
    Scan type : Progressive
    Compression mode : Lossy
    Bits/(Pixel*Frame) : 0.200
    Stream size : 602 MiB (86%)
    Writing library : XviD 1.2.1 (UTC 2008-12-04)
    Audio
    ID : 1
    Format : MPEG Audio
    Format version : Version 1
    Format profile : Layer 3
    Codec ID : 55
    Codec ID/Hint : MP3
    Duration : 1h 40mn
    Bit rate mode : Constant
    Bit rate : 128 Kbps
    Channel(s) : 2 channels
    Sampling rate : 48.0 KHz
    Compression mode : Lossy
    Stream size : 92.5 MiB (13%)
    Alignment : Aligned on interleaves
    Interleave, duration : 42 ms (1.00 video frame)
    Interleave, preload duratio : 504 ms
    Writing library : LAME3.99r
    Encoding settings : -m s -V 4 -q 2 -lowpass 17 -b 128

    Скриншот c названием фильма

    Скриншоты

    Скачать .torrent

    Скачать торрент-файл бесплатно и на максимальной скорости!

    Как скачивать? · Что такое торрент? · Рейтинг и ограничения

    !ВНИМАНИЕ!
    Сайт не распространяет и не хранит электронные версии произведений, а занимается лишь лишь предоставлением доступа к создаваемому пользователями каталогу ссылок на торрент-файлы, которые содержат только списки хеш-сумм, убедительная просьба с жалобами обращаться напрямую к пользователю. Файлы для обмена на трекере предоставлены пользователями сайта, и администрация не несёт ответственности за их содержание. Просьба не заливать файлы, защищенные авторскими правами, а также файлы нелегального содержания!


    _________________
    [Профиль] [ЛС]
    Показать сообщения:    
    Ответить на тему

    Текущее время: Сегодня, в 19:52

    Часовой пояс: GMT + 2



    Вы не можете начинать темы
    Вы не можете отвечать на сообщения
    Вы не можете редактировать свои сообщения
    Вы не можете удалять свои сообщения
    Вы не можете голосовать в опросах
    Вы не можете прикреплять файлы к сообщениям
    Вы не можете скачивать файлы