BitTorrentTracker PerecTracker.org
BitTorrentTracker PerecTracker.org
    
Регистрация  ·  Вход
 
 · 
Забыли пароль?

  • У неё будет ребенок / She\'s Having a Baby (Джон Хьюз / John Hughes) [1988, США, комедия, драма, мелодрама, WEB-DL 720p] MVO + DVO + Sub Eng + Original Eng

    Ответить на тему
     
    Автор Сообщение

    Flirldrerve

    Создавать темы 14-Фев-2016 19:26

           

    [Цитировать]

    У неё будет ребенок / She's Having a Baby
    -Страна: США
    Жанр: комедия, драма, мелодрама
    Год выпуска: 1988
    Продолжительность: 01:45:51-Перевод 1: Профессиональный (многоголосый, закадровый)
    Перевод 2: Профессиональный (двухголосый закадровый)
    Cубтитры: английские
    Оригинальная аудиодорожка: английский-Режиссер: Джон Хьюз / John Hughes-В ролях: Кевин Бейкон, Элизабет МакГоверн, Алек Болдуин, Уильям Уиндом, Холланд Тейлор, Лили Тейлор, Джон Эштон-Описание:
    Новобрачные, по имени Джейк и Кристи, едва готовы ко всем реалиям супружеской жизни. Их мечты о безупречном будущем в идеальном доме оборачиваются кошмарной действительностью, которую дополняет потрясающая новость, — У нее будет ребенок! Джек и Кристи — совершенная пара в несовершенном мире.
    Действительно ли они хотят иметь детей? Смогут ли они решить свои проблемы в погоне за лучшей жизнью? К тому же отношения осложняются появлением закадычного друга Джейка — Дэйвиса, который постоянно норовит вставлять хрупкому браку «палки в колеса».-Сэмпл: Скачать-Тип релиза: WEB-DL 720p
    Контейнер: MKV-Видео: 1280x720 (16:9); 3 966 Kbps; 23.976 fps; 0.180 bpp
    Аудио 1: Russian; AC3; 48.0 KHz; 2ch; 192 Kbps MVO
    Аудио 2: Russian; AC3; 48.0 KHz; 2ch; 192 Kbps DVO
    Аудио 3: English; AC3; 48.0 KHz; 6ch; 384 Kbps

    MediaInfo

    Format : Matroska
    Format version : Version 4 / Version 2
    File size : 3.57 GiB
    Duration : 1h 45mn
    Overall bit rate : 4 830 Kbps
    Encoded date : UTC 2016-02-04 11:56:05
    Writing application : mkvmerge v8.3.0 ('Over the Horizon') 64bit
    Writing library : libebml v1.3.1 + libmatroska v1.4.2
    Attachements : poster.jpg
    DURATION : 01:45:44.192000000
    NUMBER_OF_FRAMES : 198256
    NUMBER_OF_BYTES : 152260608
    _STATISTICS_WRITING_APP : mkvmerge v8.3.0 ('Over the Horizon') 64bit
    _STATISTICS_WRITING_DATE_UT : 2016-02-04 11:56:05
    _STATISTICS_TAGS : BPS DURATION NUMBER_OF_FRAMES NUMBER_OF_BYTES
    Video
    ID : 1
    Format : AVC
    Format/Info : Advanced Video Codec
    Format profile : High@L3.1
    Format settings, CABAC : No
    Format settings, ReFrames : 2 frames
    Codec ID : V_MPEG4/ISO/AVC
    Duration : 1h 45mn
    Bit rate : 3 966 Kbps
    Width : 1 278 pixels
    Height : 720 pixels
    Display aspect ratio : 16:9
    Frame rate mode : Constant
    Frame rate : 23.976 fps
    Color space : YUV
    Chroma subsampling : 4:2:0
    Bit depth : 8 bits
    Scan type : Progressive
    Bits/(Pixel*Frame) : 0.180
    Stream size : 2.93 GiB (82%)
    Language : English
    Default : Yes
    Forced : No
    Color range : Limited
    Color primaries : BT.709
    Transfer characteristics : BT.709
    Matrix coefficients : BT.709
    Audio #1
    ID : 2
    Format : AC-3
    Format/Info : Audio Coding 3
    Mode extension : CM (complete main)
    Format settings, Endianness : Big
    Codec ID : A_AC3
    Duration : 1h 45mn
    Bit rate mode : Constant
    Bit rate : 192 Kbps
    Channel(s) : 2 channels
    Channel positions : Front: L R
    Sampling rate : 48.0 KHz
    Compression mode : Lossy
    Stream size : 145 MiB (4%)
    Title : MVO
    Language : Russian
    Default : Yes
    Forced : No
    Audio #2
    ID : 3
    Format : AC-3
    Format/Info : Audio Coding 3
    Mode extension : CM (complete main)
    Format settings, Endianness : Big
    Codec ID : A_AC3
    Duration : 1h 45mn
    Bit rate mode : Constant
    Bit rate : 192 Kbps
    Channel(s) : 2 channels
    Channel positions : Front: L R
    Sampling rate : 48.0 KHz
    Compression mode : Lossy
    Stream size : 145 MiB (4%)
    Title : DVO
    Language : Russian
    Default : No
    Forced : No
    Audio #3
    ID : 4
    Format : AC-3
    Format/Info : Audio Coding 3
    Mode extension : CM (complete main)
    Format settings, Endianness : Big
    Codec ID : A_AC3
    Duration : 1h 45mn
    Bit rate mode : Constant
    Bit rate : 384 Kbps
    Channel(s) : 6 channels
    Channel positions : Front: L C R, Side: L R, LFE
    Sampling rate : 48.0 KHz
    Compression mode : Lossy
    Stream size : 291 MiB (8%)
    Language : English
    Default : No
    Forced : No
    Text
    ID : 5
    Format : UTF-8
    Codec ID : S_TEXT/UTF8
    Codec ID/Info : UTF-8 Plain Text
    Language : English
    Default : No
    Forced : No
    Menu
    00:00:00.000 : en:Chapter 1
    00:15:58.000 : en:Chapter 2
    00:30:39.000 : en:Chapter 3
    00:47:03.000 : en:Chapter 4
    01:00:01.000 : en:Chapter 5
    01:15:04.000 : en:Chapter 6
    01:31:02.000 : en:Chapter 7

    Скриншоты

    Скачать .torrent

    Скачать торрент-файл бесплатно и на максимальной скорости!

    Как скачивать? · Что такое торрент? · Рейтинг и ограничения

    !ВНИМАНИЕ!
    Сайт не распространяет и не хранит электронные версии произведений, а занимается лишь лишь предоставлением доступа к создаваемому пользователями каталогу ссылок на торрент-файлы, которые содержат только списки хеш-сумм, убедительная просьба с жалобами обращаться напрямую к пользователю. Файлы для обмена на трекере предоставлены пользователями сайта, и администрация не несёт ответственности за их содержание. Просьба не заливать файлы, защищенные авторскими правами, а также файлы нелегального содержания!


    _________________
    [Профиль] [ЛС]
    Показать сообщения:    
    Ответить на тему

    Текущее время: Сегодня, в 18:28

    Часовой пояс: GMT + 2



    Вы не можете начинать темы
    Вы не можете отвечать на сообщения
    Вы не можете редактировать свои сообщения
    Вы не можете удалять свои сообщения
    Вы не можете голосовать в опросах
    Вы не можете прикреплять файлы к сообщениям
    Вы не можете скачивать файлы