BitTorrentTracker PerecTracker.org
BitTorrentTracker PerecTracker.org
    
Регистрация  ·  Вход
 
 · 
Забыли пароль?

  • Любит не любит / Мало, много, слепо / Un peu, beaucoup, aveuglément! / Blind Date (Кловис Корнийяк / Clovis Cornillac) [2015, Франция, комедия, WEB-DL 1080p] Sub (Rus, Eng, Ger, Fre) + Original (Fre)

    Ответить на тему
     
    Автор Сообщение

    Flirldrerve

    Создавать темы 14-Фев-2016 19:26

           

    [Цитировать]

    Мало, много, слепо / Любит не любит / Un peu, beaucoup, aveuglément! / Blind DateСтрана: Франция
    Жанр: комедия
    Год выпуска: 2015
    Продолжительность: 01:27:39
    Перевод: Субтитры
    Cубтитры: английские, немецкие, французские, русские
    Оригинальная аудиодорожка: французский
    Режиссер: Кловис Корнийяк / Clovis Cornillac
    В ролях: Мелани Бернье, Кловис Корнийяк, Лилу Фогли, Филипп Дюкен, Грегуар Эстерманн, Оскар Копп, Борис Терраль, Маню Пайе, Арно Лешьен, Стефан Годин
    Описание:
    Изобретатель головоломок, погруженный с головой в работу, может концентрироваться только в идеальной тишине. Превосходная пианистка не может жить без музыки. Ей необходимо готовиться к конкурсу, который может изменить ее жизнь. Им придется сожительствовать, не видя друг друга…
    - ||

    участник фестиваля
    2O16 года

    -
    Тип релиза: WEB-DL 1080p
    Контейнер: MKV
    Видео: AVC (x264), 1912x792 (2.40:1) at 25,000 fps, 4400 Кbps
    Аудио 1: AC3; 384 Kbps; CBR; 6 ch; 48 khz | Французский |
    Формат субтитров: softsub (SRT)
    Скриншоты || x264 Info || MediaInfo || Notes

    MediaInfo

    General
    Unique ID                                : 252096955209392054433739552291672229850 (0xBDA81B84A39A19C886EBD673DBD707DA)
    Complete name                            : Мало, много, слепо.2014.RUSSUB.1080p.WEB-DL.x264-SVR.mkv
    Format                                   : Matroska
    Format version                           : Version 4 / Version 2
    File size                                : 2.99 GiB
    Duration                                 : 1h 27mn
    Overall bit rate                         : 4 881 Kbps
    Movie name                               : Blind Date [2015] [1080p] RUSSUB
    Encoded date                             : UTC 2016-02-11 12:00:08
    Writing application                      : mkvmerge v7.8.0 ('River Man') 32bit built on Mar 27 2015 16:18:02
    Writing library                          : libebml v1.3.1 + libmatroska v1.4.2
    Video
    ID                                       : 1
    Format                                   : AVC
    Format/Info                              : Advanced Video Codec
    Format profile                           : High@L4.0
    Format settings, CABAC                   : Yes
    Format settings, ReFrames                : 5 frames
    Codec ID                                 : V_MPEG4/ISO/AVC
    Duration                                 : 1h 27mn
    Bit rate                                 : 4 400 Kbps
    Width                                    : 1 912 pixels
    Height                                   : 792 pixels
    Display aspect ratio                     : 2.40:1
    Frame rate mode                          : Constant
    Frame rate                               : 25.000 fps
    Color space                              : YUV
    Chroma subsampling                       : 4:2:0
    Bit depth                                : 8 bits
    Scan type                                : Progressive
    Bits/(Pixel*Frame)                       : 0.116
    Stream size                              : 2.69 GiB (90%)
    Title                                    : profile.php?mode=viewprofile&u=22488948
    Language                                 : English
    Default                                  : Yes
    Forced                                   : No
    Color primaries                          : BT.709
    Transfer characteristics                 : BT.709
    Matrix coefficients                      : BT.709
    Color range                              : Limited
    Audio
    ID                                       : 2
    Format                                   : AC-3
    Format/Info                              : Audio Coding 3
    Mode extension                           : CM (complete main)
    Format settings, Endianness              : Big
    Codec ID                                 : A_AC3
    Duration                                 : 1h 27mn
    Bit rate mode                            : Constant
    Bit rate                                 : 384 Kbps
    Channel(s)                               : 6 channels
    Channel positions                        : Front: L C R, Side: L R, LFE
    Sampling rate                            : 48.0 KHz
    Bit depth                                : 16 bits
    Compression mode                         : Lossy
    Stream size                              : 241 MiB (8%)
    Language                                 : French
    Default                                  : Yes
    Forced                                   : No
    Text #1
    ID                                       : 3
    Format                                   : UTF-8
    Codec ID                                 : S_TEXT/UTF8
    Codec ID/Info                            : UTF-8 Plain Text
    Language                                 : Russian
    Default                                  : Yes
    Forced                                   : No
    Text #2
    ID                                       : 4
    Format                                   : UTF-8
    Codec ID                                 : S_TEXT/UTF8
    Codec ID/Info                            : UTF-8 Plain Text
    Language                                 : English
    Default                                  : No
    Forced                                   : No
    Text #3
    ID                                       : 5
    Format                                   : UTF-8
    Codec ID                                 : S_TEXT/UTF8
    Codec ID/Info                            : UTF-8 Plain Text
    Language                                 : French
    Default                                  : No
    Forced                                   : No
    Text #4
    ID                                       : 6
    Format                                   : UTF-8
    Codec ID                                 : S_TEXT/UTF8
    Codec ID/Info                            : UTF-8 Plain Text
    Language                                 : German
    Default                                  : No
    Forced                                   : No
    Menu
    00:00:00.000                             : en:Chapitre 1
    00:08:07.000                             : en:Chapitre 2
    00:16:41.000                             : en:Chapitre 3
    00:23:52.000                             : en:Chapitre 4
    00:31:50.000                             : en:Chapitre 5
    00:39:54.000                             : en:Chapitre 6
    00:47:17.000                             : en:Chapitre 7
    00:56:59.000                             : en:Chapitre 8
    01:06:37.000                             : en:Chapitre 9
    01:13:50.000                             : en:Chapitre 10
    01:21:31.000                             : en:Chapitre 11
    01:25:45.000                             : en:Chapitre 12
    Скачать .torrent

    Скачать торрент-файл бесплатно и на максимальной скорости!

    Как скачивать? · Что такое торрент? · Рейтинг и ограничения

    !ВНИМАНИЕ!
    Сайт не распространяет и не хранит электронные версии произведений, а занимается лишь лишь предоставлением доступа к создаваемому пользователями каталогу ссылок на торрент-файлы, которые содержат только списки хеш-сумм, убедительная просьба с жалобами обращаться напрямую к пользователю. Файлы для обмена на трекере предоставлены пользователями сайта, и администрация не несёт ответственности за их содержание. Просьба не заливать файлы, защищенные авторскими правами, а также файлы нелегального содержания!


    _________________
    [Профиль] [ЛС]
    Показать сообщения:    
    Ответить на тему

    Текущее время: Сегодня, в 06:15

    Часовой пояс: GMT + 2



    Вы не можете начинать темы
    Вы не можете отвечать на сообщения
    Вы не можете редактировать свои сообщения
    Вы не можете удалять свои сообщения
    Вы не можете голосовать в опросах
    Вы не можете прикреплять файлы к сообщениям
    Вы не можете скачивать файлы