BitTorrentTracker PerecTracker.org
BitTorrentTracker PerecTracker.org
    
Регистрация  ·  Вход
 
 · 
Забыли пароль?

  • 007: СПЕКТР / Spectre (Сэм Мендес / Sam Mendes) [2015, США, Великобритания, Боевик, Триллер, Приключения, HDRip-AVC] Dub + Sub Rus

    Ответить на тему
     
    Автор Сообщение

    rechyn

    Создавать темы 14-Фев-2016 15:14

           

    [Цитировать]

    -007: СПЕКТР / Spectre--Страна: США, Великобритания
    Жанр: Боевик, Триллер, Приключения
    Год выпуска: 2015
    Продолжительность: 02:28:06-Перевод: Профессиональный (дублированный) Лицензия-Cубтитры: Русские (форсированные)
    Оригинальная аудиодорожка: нет-Режиссер: Сэм Мендес / Sam Mendes-В ролях: Дэниэл Крэйг, Кристоф Вальц, Леа Сейду, Рэйф Файнс, Моника Беллуччи, Бен Уишоу, Наоми Харрис, Дэйв Батиста, Эндрю Скотт, Рори Киннер, Еспер Кристенсен, Алессандро Кремона, Стефани Сигман, Теноч Уэрта, Адриана Пас, Доменико Фортунато, Йен Бонар, Там Уильямс, Ричард Бенхем, Пип Картер-Описание: Зашифрованное послание из неизвестного источника выводит Бонда на след зловещей глобальной организации под кодовым названием СПЕКТР, в то время как М пытается спасти секретную разведывательную службу от ликвидации.---Качество видео: BDRip-AVC (исх. Неизвестен)
    Формат видео: MKV-Видео: MPEG-4 AVC, 1024x430 (2.40:1), 23.976 fps, ~1747 kbps avg, 0.165 bit/pixel
    Аудио: 48 kHz, AC3 Dolby Digital, 3/2 (L,C,R,l,r) + LFE ch, ~384 kbps avg-

    MediaInfo

    Complete name : D:\РАЗДАЧИ\Spectre (2015) BDRip-AVC.mkv
    Format : Matroska
    Format version : Version 2
    File size : 2.21 GiB
    Duration : 2h 28mn
    Overall bit rate : 2 133 Kbps
    Movie name : Spectre (2015) BDRip-AVC
    Encoded date : UTC 2016-02-14 09:18:34
    Writing application : mkvmerge v3.0.0 ('Hang up your Hang-Ups') built on Dec 12 2009 15:20:35
    Writing library : libebml v0.7.9 + libmatroska v0.8.1
    Cover : Yes
    Video
    ID : 1
    Format : AVC
    Format/Info : Advanced Video Codec
    Format profile : High@L4.1
    Format settings, CABAC : Yes
    Format settings, ReFrames : 12 frames
    Codec ID : V_MPEG4/ISO/AVC
    Duration : 2h 28mn
    Bit rate : 1 747 Kbps
    Width : 1 024 pixels
    Height : 430 pixels
    Display aspect ratio : 2.40:1
    Frame rate mode : Constant
    Frame rate : 23.976 fps
    Color space : YUV
    Chroma subsampling : 4:2:0
    Bit depth : 8 bits
    Scan type : Progressive
    Bits/(Pixel*Frame) : 0.165
    Stream size : 1.77 GiB (80%)
    Writing library : x264 core 146 r2538 121396c
    Encoding settings : cabac=1 / ref=12 / deblock=1:-3:-3 / analyse=0x3:0x113 / me=umh / subme=11 / psy=1 / psy_rd=1.00:0.00 / mixed_ref=1 / me_range=48 / chroma_me=1 / trellis=2 / 8x8dct=1 / cqm=0 / deadzone=21,11 / fast_pskip=0 / chroma_qp_offset=-2 / threads=12 / lookahead_threads=3 / sliced_threads=0 / nr=0 / decimate=1 / interlaced=0 / bluray_compat=0 / constrained_intra=0 / bframes=13 / b_pyramid=2 / b_adapt=2 / b_bias=0 / direct=3 / weightb=1 / open_gop=0 / weightp=2 / keyint=240 / keyint_min=23 / scenecut=40 / intra_refresh=0 / rc_lookahead=40 / rc=2pass / mbtree=1 / bitrate=1747 / ratetol=1.0 / qcomp=0.60 / qpmin=0 / qpmax=69 / qpstep=4 / cplxblur=20.0 / qblur=0.5 / vbv_maxrate=14000 / vbv_bufsize=14000 / nal_hrd=none / filler=0 / ip_ratio=1.40 / aq=1:1.00
    Language : English
    Default : No
    Forced : No
    Audio
    ID : 2
    Format : AC-3
    Format/Info : Audio Coding 3
    Mode extension : CM (complete main)
    Format settings, Endianness : Big
    Codec ID : A_AC3
    Duration : 2h 28mn
    Bit rate mode : Constant
    Bit rate : 384 Kbps
    Channel(s) : 6 channels
    Channel positions : Front: L C R, Side: L R, LFE
    Sampling rate : 48.0 KHz
    Bit depth : 16 bits
    Compression mode : Lossy
    Stream size : 407 MiB (18%)
    Title : Дубляж
    Language : Russian
    Default : Yes
    Forced : No
    Text
    ID : 3
    Format : UTF-8
    Codec ID : S_TEXT/UTF8
    Codec ID/Info : UTF-8 Plain Text
    Title : Forced
    Language : Russian
    Default : Yes
    Forced : No
    Menu
    00:00:00.000 : en:Chapter 01
    00:06:09.118 : en:Chapter 03
    00:13:04.784 : en:Chapter 05
    00:18:58.470 : en:Chapter 07
    00:24:46.776 : en:Chapter 09
    00:28:04.057 : en:Chapter 11
    00:32:15.558 : en:Chapter 13
    00:36:58.591 : en:Chapter 15
    00:41:56.639 : en:Chapter 17
    00:46:13.145 : en:Chapter 19
    00:50:51.923 : en:Chapter 21
    00:53:43.220 : en:Chapter 23
    01:00:21.367 : en:Chapter 25
    01:06:48.212 : en:Chapter 27
    01:10:58.963 : en:Chapter 29
    01:15:14.092 : en:Chapter 31
    01:18:55.647 : en:Chapter 33
    01:26:11.040 : en:Chapter 35
    01:29:39.999 : en:Chapter 37
    01:36:43.547 : en:Chapter 39
    01:41:44.389 : en:Chapter 41
    01:49:06.414 : en:Chapter 43
    01:55:52.820 : en:Chapter 45
    01:59:39.213 : en:Chapter 47
    02:04:19.743 : en:Chapter 49
    02:09:28.510 : en:Chapter 51
    02:14:05.662 : en:Chapter 53
    02:19:42.374 : en:Chapter 55
    02:28:06.627 : en:Chapter 56

    Скриншот c названием фильма

    Скриншоты

    Скачать .torrent

    Скачать торрент-файл бесплатно и на максимальной скорости!

    Как скачивать? · Что такое торрент? · Рейтинг и ограничения

    !ВНИМАНИЕ!
    Сайт не распространяет и не хранит электронные версии произведений, а занимается лишь лишь предоставлением доступа к создаваемому пользователями каталогу ссылок на торрент-файлы, которые содержат только списки хеш-сумм, убедительная просьба с жалобами обращаться напрямую к пользователю. Файлы для обмена на трекере предоставлены пользователями сайта, и администрация не несёт ответственности за их содержание. Просьба не заливать файлы, защищенные авторскими правами, а также файлы нелегального содержания!


    _________________
    [Профиль] [ЛС]
    Показать сообщения:    
    Ответить на тему

    Текущее время: Сегодня, в 23:56

    Часовой пояс: GMT + 2



    Вы не можете начинать темы
    Вы не можете отвечать на сообщения
    Вы не можете редактировать свои сообщения
    Вы не можете удалять свои сообщения
    Вы не можете голосовать в опросах
    Вы не можете прикреплять файлы к сообщениям
    Вы не можете скачивать файлы