BitTorrentTracker PerecTracker.org
BitTorrentTracker PerecTracker.org
    
Регистрация  ·  Вход
 
 · 
Забыли пароль?

  • Любовница из Москвы (Анатолий Эйрамджан) [2001, Комедия, DVB-AVC]

    Ответить на тему
     
    Автор Сообщение

    rechyn

    Создавать темы 14-Фев-2016 02:38

           

    [Цитировать]

    Любовница из Москвы
    Страна: Россия
    Киностудия: "Новый Одеон"
    Жанр: Комедия
    Год выпуска: 2001
    Продолжительность: 01:03:09
    Режиссёр: Анатолий Эйрамджан
    Релиз:
    В ролях: Аркадий Укупник, Екатерина Зинченко, Александр Панкратов-Чёрный, Ирина Шмелёва, Борис Щербаков, Дэвид Безуб, Дэниель Соркин, Наталья Гольденберг, Ольга Карпович, Алексей Гогота, Михаил Малинкович, Елена Сосновская, Владимир Соколов, Оксана Шагдар, Наталья Нистратова, Константин Тер-Григорьян, Светлана Постемская, Максим Рукавишников
    Описание: Незатейливая комедия о том, как двое женатых друзей, проживающих в Майами, истосковавшись по женскому обществу, воспользовались предложением приятеля, проживающего в Москве, и вызвали к себе любовницу из столицы. Она, не долго думая, задурила им голову, ни с кем из них не переспала, но зато нашла себе мужа-миллионера. Ну что ж, надо вызывать следующую, решили друзья, а лучше двух...
    Доп. информация:
    Сценарист: Анатолий Эйрамджан
    Оператор: Евгений Давыдов
    Продюсеры: Анатолий Эйрамджан, Геральд Бежанов

    Запись потока *.ts с наземного цифрового телеканала "Беларусь 3", ремукс в *.mkv программой VideoReDo.
    Синхронизация звука без перекодировки mkvmerge v8.5.1
    Мои раздачи:

    Мои раздачи

    Все
    http://RUtracker.org/forum/tracker.php?rid=9778909
    http://BY.perectracker.org/forum/tracker.php?rid=9778909
    http://UA.perectracker.org/forum/tracker.php?rid=9778909
    Избранные:
    1) Я - гражданин Республики Беларусь. Архитектурные и художественные шедевры Беларуси [2008, RUS]
    http://perectracker.org/viewtopic.php?t=3516744
    2) Государственная политика [Документальный цикл, TVRip, 2010]
    http://perectracker.org/viewtopic.php?t=3321565
    3) Беларусь. Взгляд извне [2005, документальный сериал, TVRip]
    http://perectracker.org/viewtopic.php?t=3543820
    4) Трилогия: Белая Русь, Чарующая Беларусь, Путешествие из Беларуси в Россию [2010-2011 г., Документальный, DVD5]
    http://perectracker.org/viewtopic.php?t=3442053
    5) Правда о западной «демократии» и белорусском «тоталитаризме» [Беларусь 2011, Документальное расследование]
    http://perectracker.org/viewtopic.php?t=3523672
    6) Задорнов в Беларуси. Беларусь - это значительно улучшенный Советский Союз [2010-2011 г., Интервью, TVRip]
    http://perectracker.org/viewtopic.php?t=3512134
    7) [Журнал] Экономика Беларуси (16 номеров) [2007-2010, PDF, RUS]
    http://perectracker.org/viewtopic.php?t=3309120
    8) Армия - Журнал Вооруженных сил республики Беларусь. (81 номер) [1996-2010, PDF, RUS]
    http://perectracker.org/viewtopic.php?t=3277264
    9) Страна Моя, Беларусь! Заставка телеканал СТВ Минск. Белоруссия, Мир, Несвиж и др. zweizwei [2010, рекламный ролик, заставка, HD-Video]
    http://perectracker.org/viewtopic.php?t=3480687
    10) Радзивиллы Несвижские владения Костел Божьего тела [2011 г., хроникально-документальный, TVRip]
    http://perectracker.org/viewtopic.php?t=3410980
    11) Полёты на воздушном шаре. Новогрудок. Беларусь. zweizwei / Belarus Novogrudok [2010, HD-Video]
    http://perectracker.org/viewtopic.php?t=3380821
    12) Полёты на воздушном шаре / Беларусь, Белоруссия, Гродно, Святск. zweizwei [2009, HD-Video]
    http://perectracker.org/viewtopic.php?t=3380756
    13) Вид Гродно с высоты полета (Беларусь)/Выгляд Гродна з вышыні палёту паветранага шара [222]
    http://perectracker.org/viewtopic.php?t=3369388
    14) Анархия Прямое действие. Беларусь [2011, документальный фильм, TVRip]
    http://perectracker.org/viewtopic.php?t=3485756
    15) Психология девиации (АТН, Беларусь ТВ) [2010, Информационно-аналитические и общественно-политическиепередачи, TVRip]
    http://perectracker.org/viewtopic.php?t=3542424
    16) Боль моя - Чернобыль (Беларусь, Коллектив Беларусь ТВ) [2011, Документлный, TVRip]
    http://perectracker.org/viewtopic.php?t=3546253
    17) Попов хутор и его обитатели Русс ТВ [2011, Документальный, DVD5]
    http://perectracker.org/viewtopic.php?t=3514286
    и сотни других...
    Качество видео: DVB-AVC
    Формат/Контейнер: MKV
    Видео кодек: H.264
    Аудио кодек: MP2
    Видео поток: AVC (H264), 720x576 (4:3), 25 fps, 2 192 Kbps
    Аудио поток: MP2, 256 kbps, 2 channels, 48 kHz
    Сэмпл: http://multi-up.com/1088984

    MediaInfo

    General
    Unique ID : 196932676914510662840570939526900869792 (0x9427DA9C743C6C1497CACFB88907EAA0)
    Complete name : D:\Новая земля 2\00001\Любовница из Москвы (2001)\Любовница из Москвы_2001.mkv
    Format : Matroska
    Format version : Version 4 / Version 2
    File size : 1.10 GiB
    Duration : 1h 3mn
    Overall bit rate : 2 498 Kbps
    Encoded date : UTC 2016-02-13 21:46:11
    Writing application : mkvmerge v8.5.1 ('Where you lead I will follow') 32bit
    Writing library : libebml v1.3.3 + libmatroska v1.4.4
    Video
    ID : 1
    Format : AVC
    Format/Info : Advanced Video Codec
    Format profile : Main@L3.0
    Format settings, CABAC : Yes
    Format settings, ReFrames : 4 frames
    Codec ID : V_MPEG4/ISO/AVC
    Duration : 1h 3mn
    Bit rate : 2 192 Kbps
    Width : 720 pixels
    Height : 576 pixels
    Display aspect ratio : 4:3
    Original display aspect ratio : 4:3
    Frame rate mode : Constant
    Frame rate : 25.000 fps
    Standard : PAL
    Color space : YUV
    Chroma subsampling : 4:2:0
    Bit depth : 8 bits
    Scan type : MBAFF
    Scan order : Top Field First
    Bits/(Pixel*Frame) : 0.211
    Stream size : 990 MiB (88%)
    Default : Yes
    Forced : No
    Color primaries : BT.601 PAL
    Transfer characteristics : BT.470 System B, BT.470 System G
    Matrix coefficients : BT.601
    Color range : Limited
    DURATION : 01:03:09.040000000
    NUMBER_OF_FRAMES : 94726
    NUMBER_OF_BYTES : 1061022816
    _STATISTICS_WRITING_APP : mkvmerge v8.5.1 ('Where you lead I will follow') 32bit
    _STATISTICS_WRITING_DATE_UTC : 2016-02-13 21:46:11
    _STATISTICS_TAGS : BPS DURATION NUMBER_OF_FRAMES NUMBER_OF_BYTES
    Audio
    ID : 2
    Format : MPEG Audio
    Format version : Version 1
    Format profile : Layer 2
    Codec ID : A_MPEG/L2
    Codec ID/Hint : MP2
    Duration : 1h 3mn
    Bit rate mode : Constant
    Bit rate : 256 Kbps
    Channel(s) : 2 channels
    Sampling rate : 48.0 KHz
    Compression mode : Lossy
    Delay relative to video : 150ms
    Stream size : 116 MiB (10%)
    Language : Russian
    Default : Yes
    Forced : No
    DURATION : 01:03:09.000000000
    NUMBER_OF_FRAMES : 157875
    NUMBER_OF_BYTES : 121248000
    _STATISTICS_WRITING_APP : mkvmerge v8.5.1 ('Where you lead I will follow') 32bit
    _STATISTICS_WRITING_DATE_UTC : 2016-02-13 21:46:11
    _STATISTICS_TAGS : BPS DURATION NUMBER_OF_FRAMES NUMBER_OF_BYTES

    Скриншоты

    Скачать .torrent

    Скачать торрент-файл бесплатно и на максимальной скорости!

    Как скачивать? · Что такое торрент? · Рейтинг и ограничения

    !ВНИМАНИЕ!
    Сайт не распространяет и не хранит электронные версии произведений, а занимается лишь лишь предоставлением доступа к создаваемому пользователями каталогу ссылок на торрент-файлы, которые содержат только списки хеш-сумм, убедительная просьба с жалобами обращаться напрямую к пользователю. Файлы для обмена на трекере предоставлены пользователями сайта, и администрация не несёт ответственности за их содержание. Просьба не заливать файлы, защищенные авторскими правами, а также файлы нелегального содержания!


    _________________
    [Профиль] [ЛС]
    Показать сообщения:    
    Ответить на тему

    Текущее время: Сегодня, в 14:50

    Часовой пояс: GMT + 2



    Вы не можете начинать темы
    Вы не можете отвечать на сообщения
    Вы не можете редактировать свои сообщения
    Вы не можете удалять свои сообщения
    Вы не можете голосовать в опросах
    Вы не можете прикреплять файлы к сообщениям
    Вы не можете скачивать файлы