BitTorrentTracker PerecTracker.org
BitTorrentTracker PerecTracker.org
    
Регистрация  ·  Вход
 
 · 
Забыли пароль?

  • [ATV3] Мафия: Игра на выживание (Сарик Андреасян) [2015, Россия, Фантастика, боевик, WEB-DL, HD (1080p)] Original

    Ответить на тему
     
    Автор Сообщение

    Flirldrerve

    Создавать темы 13-Фев-2016 14:02

           

    [Цитировать]

    Мафия: Игра на выживание
    «Город засыпает, просыпается...»
    6.479 / 10 6.70 / 10
    -Год выпуска: 2015
    Страна: Россия
    Жанр: Фантастика, боевик
    Продолжительность: 01:30:40
    Перевод: Не требуется
    Оригинальная аудиодорожка: Есть
    Cубтитры: Нет
    Режиссёр: Сарик Андреасян
    Сценарий: Андрей Гаврилов
    Продюсер: Сарик Андреасян, Гевонд Андреасян, Владимир Поляков
    Оператор: Антон Зенкович
    Композитор: Роман Вишневский, Алим Заиров
    Художник: Давид Дадунашвили, Оксана Шевченко
    В ролях: Виктор Вержбицкий, Вениамин Смехов, Юрий Чурсин, Вячеслав Разбегаев, Ольга Тумайкина, Андрей Чадов, Вадим Цаллати, Виолетта Гетманская, Наталья Рудова, Евгений Коряковский
    Бюджет: 180 000 000 руб.
    Сборы в России: $4 026 795
    Мировая премьера: 1 января 2016
    Премьера (РФ): 14 января 2016, «Каропрокат»
    Описание: Москва. Далекое будущее. Карточная игра МАФИЯ стала самым популярным в мире телешоу. Одиннадцать человек соберутся за столом, чтобы выяснить — кто из них Мирный Житель, а кто безжалостная МАФИЯ. На глазах всего мира готовится коктейль из эмоций и чувств: хитрости, страха, лжи, ненависти, презрения, боли, гордости, страсти, любви и смерти. Ведь выигравший в схватке получит огромный денежный приз, а проигравший просто умрет…-Качество исходника: WEB-DL 1080p (BlueBird)
    Качество: WEB-DL
    Тип: HD (1080p)
    Контейнер: M4V
    Видео: H.264, 1912x792, 2.40:1, 4 432 Kbps, 24.000 fps
    Аудио 1: Русский/Оригинальная дорожка , AAC / 2.0 / 158 Kbps / 48.0 KHz
    Аудио 2: Русский/Оригинальная дорожка , AC-3 / 5.1 / 384 Kbps / 48.0 KHz
    -

    iTunes Meta Tags

    Sort Name: Мафия: Игра на выживание
    XID: Apple:vendor_id:2015-839253
    contentID: 1077582509
    Screenwriters: Андрей Гаврилов
    Producers: Сарик Андреасян, Гевонд Андреасян, Владимир Поляков
    Director: Сарик Андреасян
    Cast: Виктор Вержбицкий, Вениамин Смехов, Юрий Чурсин, Вячеслав Разбегаев, Ольга Тумайкина, Андрей Чадов, Вадим Цаллати, Виолетта Гетманская, Наталья Рудова, Евгений Коряковский
    Studio: ООО "Энджой мувиз"
    Rating: 135
    Long Description: Москва. Далекое будущее. Карточная игра МАФИЯ стала самым популярным в мире телешоу. Одиннадцать человек соберутся за столом, чтобы выяснить - кто из них Мирный Житель, а кто безжалостная МАФИЯ. На глазах всего мира готовится коктейль из эмоций и чувств: хитрости, страха, лжи, ненависти, презрения, боли, гордости, страсти, любви и смерти. Ведь выигравший в схватке получит огромный денежный приз, а проигравший просто умрет...
    Description: Москва. Далекое будущее. Карточная игра МАФИЯ стала самым популярным в мире телешоу. Одиннадцать человек соберутся за столом, чтобы выяснить - кто из них Мирный Житель, а кто безжалостная МАФИЯ. На глазах всего мира готовится коктейль из эмоций и чувств: хитрости, страха, лжи, ненависти, презрения, боли, гордости, страсти, любви и смерти. Ведь выигравший в схватке получит огромный денежный приз, а проигравший просто умрет...
    Release Date: 2016-01-01T08:00:00Z
    Genre: Action & Adventure
    Artist: Сарик Андреасян
    Name: Мафия: Игра на выживание

    MediaInfo

    General
    Complete name : /Users/imac/HandBrake/Mafia.Survival.Game.WEB-DL.1080p.m4v
    Format : MPEG-4
    Codec ID : M4V  (M4V /M4A /mp42/isom)
    File size : 3.15 GiB
    Duration : 1h 30mn
    Overall bit rate mode : Variable
    Overall bit rate : 4 981 Kbps
    Movie name : Мафия: Игра на выживание
    Performer : Сарик Андреасян
    Director : Сарик Андреасян
    Actor : Виктор Вержбицкий / Вениамин Смехов / Юрий Чурсин / Вячеслав Разбегаев / Ольга Тумайкина / Андрей Чадов / Вадим Цаллати / Виолетта Гетманская / Наталья Рудова / Евгений Коряковский
    Screenplay by : Андрей Гаврилов
    Producer : Сарик Андреасян / Гевонд Андреасян / Владимир Поляков
    Production studio : ООО "Энджой мувиз"
    Genre : Action & Adventure
    ContentType : Short Film
    Description : Москва. Далекое будущее. Карточная игра МАФИЯ стала самым популярным в мире телешоу. Одиннадцать человек соберутся за столом, чтобы выяснить - кто из них Мирный Житель, а кто безжалостная МАФИЯ. На глазах всего мира готовится коктейль из эмоций и чувств: хитрости, страха, лжи, ненависти, презрения, боли, гордости, страсти, любви и смерти. Ведь выигравший в схватке получит огромный денежный приз, а проигравший просто умрет...
    Recorded date : UTC 2016-01-01 08:00:00
    Encoded date : UTC 2016-02-13 09:53:06
    Tagged date : UTC 2016-02-13 09:56:45
    Cover : Yes
    Rating : None
    Title/Sort : Мафия: Игра на выживание
    LongDescription : Москва. Далекое будущее. Карточная игра МАФИЯ стала самым популярным в мире телешоу. Одиннадцать человек соберутся за столом, чтобы выяснить - кто из них Мирный Житель, а кто безжалостная МАФИЯ. На глазах всего мира готовится коктейль из эмоций и чувств: хитрости, страха, лжи, ненависти, презрения, боли, гордости, страсти, любви и смерти. Ведь выигравший в схватке получит огромный денежный приз, а проигравший просто умрет...
    AppleStoreCatalogID : 1077582509
    Vendor : Apple:vendor_id:2015-839253
    ContentRating : ru-movie|16+|375|
    Video #1
    ID : 1
    Format : AVC
    Format/Info : Advanced Video Codec
    Format profile : High@L4
    Format settings, CABAC : Yes
    Format settings, ReFrames : 5 frames
    Codec ID : avc1
    Codec ID/Info : Advanced Video Coding
    Duration : 1h 30mn
    Bit rate : 4 432 Kbps
    Width : 1 912 pixels
    Height : 792 pixels
    Display aspect ratio : 2.40:1
    Frame rate mode : Variable
    Frame rate : 24.000 fps
    Minimum frame rate : 23.810 fps
    Maximum frame rate : 24.390 fps
    Color space : YUV
    Chroma subsampling : 4:2:0
    Bit depth : 8 bits
    Scan type : Progressive
    Bits/(Pixel*Frame) : 0.122
    Stream size : 2.81 GiB (89%)
    Title : Main Program
    Language : Russian
    Encoded date : UTC 2016-02-13 09:53:06
    Tagged date : UTC 2016-02-13 09:54:21
    Color range : Limited
    Color primaries : BT.709
    Transfer characteristics : BT.709
    Matrix coefficients : BT.709
    Menus : 4,5
    Video #2
    ID : 5
    Format : JPEG
    Codec ID : jpeg
    Duration : 1h 30mn
    Bit rate mode : Variable
    Bit rate : 613 bps
    Width : 640 pixels
    Height : 265 pixels
    Display aspect ratio : 2.40:1
    Frame rate mode : Variable
    Frame rate : 0.002 fps
    Minimum frame rate : 0.001 fps
    Maximum frame rate : 0.006 fps
    Color space : YUV
    Chroma subsampling : 4:2:0
    Bit depth : 8 bits
    Compression mode : Lossy
    Bits/(Pixel*Frame) : 1.807
    Stream size : 449 KiB (0%)
    Title : Chapter Images
    Language : Russian
    Default : No
    Encoded date : UTC 2016-02-13 09:54:25
    Tagged date : UTC 2016-02-13 09:54:26
    Menu For : 1
    Audio #1
    ID : 2
    Format : AAC
    Format/Info : Advanced Audio Codec
    Format profile : LC
    Codec ID : 40
    Duration : 1h 30mn
    Bit rate mode : Variable
    Bit rate : 158 Kbps
    Maximum bit rate : 231 Kbps
    Channel(s) : 2 channels
    Channel positions : Front: L R
    Sampling rate : 48.0 KHz
    Frame rate : 46.875 fps (1024 spf)
    Compression mode : Lossy
    Stream size : 103 MiB (3%)
    Title : Russian Stereo
    Language : Russian
    Default : Yes
    Alternate group : 1
    Encoded date : UTC 2016-02-13 09:53:06
    Tagged date : UTC 2016-02-13 09:53:20
    Fallback From : 3
    Audio #2
    ID : 3
    Format : AC-3
    Format/Info : Audio Coding 3
    Mode extension : CM (complete main)
    Format settings, Endianness : Big
    Codec ID : ac-3
    Duration : 1h 30mn
    Bit rate mode : Constant
    Bit rate : 384 Kbps
    Channel(s) : 6 channels
    Channel positions : Front: L C R, Side: L R, LFE
    Sampling rate : 48.0 KHz
    Frame rate : 31.250 fps (1536 spf)
    Bit depth : 16 bits
    Compression mode : Lossy
    Stream size : 249 MiB (8%)
    Title : Russian DD 5.1
    Language : Russian
    Default : Inherited From: 2
    Alternate group : 1
    Encoded date : UTC 2016-02-13 09:53:06
    Tagged date : UTC 2016-02-13 09:53:20
    Fallback To : 2
    Menu #1
    00:00:00.000 : 1
    00:02:59.000 : 2
    00:11:45.000 : 3
    00:22:40.000 : 4
    00:27:39.000 : 5
    00:36:05.000 : 6
    00:43:30.000 : 7
    00:54:40.000 : 8
    01:05:18.000 : 9
    01:13:28.000 : 10
    01:20:43.000 : 11
    01:26:33.000 : 12
    Menu #2
    ID : 4
    Codec ID : text
    Duration : 1h 30mn
    Language : Russian
    Encoded date : UTC 2016-02-13 09:54:21
    Tagged date : UTC 2016-02-13 09:54:21
    Menu For : 1
    00:00:00.000 : 1
    00:02:59.000 : 2
    00:11:45.000 : 3
    00:22:40.000 : 4
    00:27:39.000 : 5
    00:36:05.000 : 6
    00:43:30.000 : 7
    00:54:40.000 : 8
    01:05:18.000 : 9
    01:13:28.000 : 10
    01:20:43.000 : 11
    01:26:33.000 : 12
    Bit rate mode : VBR

    Скриншоты

    -

    Релиз подготовлен для просмотра на Apple TV, iPad, iPhone, iPod Touch.
    Для просмотра данного релиза на компьютере с ОС Windows рекомендуется использовать VLC media player
    Скачать .torrent

    Скачать торрент-файл бесплатно и на максимальной скорости!

    Как скачивать? · Что такое торрент? · Рейтинг и ограничения

    !ВНИМАНИЕ!
    Сайт не распространяет и не хранит электронные версии произведений, а занимается лишь лишь предоставлением доступа к создаваемому пользователями каталогу ссылок на торрент-файлы, которые содержат только списки хеш-сумм, убедительная просьба с жалобами обращаться напрямую к пользователю. Файлы для обмена на трекере предоставлены пользователями сайта, и администрация не несёт ответственности за их содержание. Просьба не заливать файлы, защищенные авторскими правами, а также файлы нелегального содержания!


    _________________
    [Профиль] [ЛС]
    Показать сообщения:    
    Ответить на тему

    Текущее время: Сегодня, в 04:21

    Часовой пояс: GMT + 2



    Вы не можете начинать темы
    Вы не можете отвечать на сообщения
    Вы не можете редактировать свои сообщения
    Вы не можете удалять свои сообщения
    Вы не можете голосовать в опросах
    Вы не можете прикреплять файлы к сообщениям
    Вы не можете скачивать файлы