BitTorrentTracker PerecTracker.org
BitTorrentTracker PerecTracker.org
    
Регистрация  ·  Вход
 
 · 
Забыли пароль?

  • 007: СПЕКТР / Spectre (Сэм Мендес / Sam Mendes) [2015, США, Великобритания, Боевик, Триллер, Приключения, BDRip-AVC] Dub + Sub Rus, Eng + Original Eng

    Ответить на тему
     
    Автор Сообщение

    rechyn

    Создавать темы 13-Фев-2016 14:02

           

    [Цитировать]

    007: СПЕКТРSpectre«The Dead Are Alive»

    Страна: США, Великобритания
    Жанр: Боевик, Триллер, Приключения
    Год выпуска: 2015
    Продолжительность: 02:28.06
    Перевод: Профессиональный (дублированный) Bluray EUR
    Cубтитры: русские,английские
    Оригинальная аудиодорожка: английский
    Режиссер: Сэм Мендес / Sam Mendes
    В ролях: Дэниэл Крэйг, Кристоф Вальц, Леа Сейду, Рэйф Файнс, Моника Беллуччи, Бен Уишоу, Наоми Харрис, Дэйв Батиста, Эндрю Скотт, Рори Киннер
    Описание: Зашифрованное послание из неизвестного источника выводит Бонда на след зловещей глобальной организации под кодовым названием СПЕКТР, в то время как М пытается спасти секретную разведывательную службу от ликвидации.
    Доп. информация:
    Релиз группы:
    Качество видео: BDRip-AVC | 007: СПЕКТР / Spectre (2015) Blu-ray Disc [EUR] 1080p AVC DTS 5.1| BLUEBIRD
    Формат видео: MKV
    Видео: 1142x480 (2.40:1), 23.976 fps, 3718Кbps, 0.283 bit/pixe
    Аудио: 48 kHz, AC3 Dolby Digital, 3/2 (L,C,R,l,r) + LFE ch, 448.00 kbps DUB
    Аудио 2: 48 kHz, AC3 Dolby Digital, 3/2 (L,C,R,l,r) + LFE ch, 448.00 kbps ENG
    Формат субтитров: softsub (SRT)
    Доп. информация о субтитрах: отключаемые

    Знаете ли Вы что

    Гари Олдман рассматривался на роль, которую в итоге получил Кристоф Вальц.
    Новый автомобиль Джеймса Бонда — Aston Martin DB10.
    Энг Ли, Том Хупер, Дэвид Йэтс, Дэнни Бойл, Шейн Блэк, Кристофер Нолан рассматривались на пост режиссера до того, как к этой должности согласился вернуться Сэм Мендес.
    Роль С мог сыграть Чиветель Эджиофор.
    Сцена взрыва секретной базы в Марокко внесена в «Книгу рекордов Гиннеса» как самый большой постановочный взрыв в истории кино.

    MediaInfo

    General
    Unique ID : 240803291524407785169077846423477279684 (0xB52906E883A8EDD8A2B9745CA309DBC4)
    Complete name : E:\Мои рипы\007 Спектр\Spectre by_IVAN@190282.mkv
    Format : Matroska
    Format version : Version 4 / Version 2
    File size : 4.87 GiB
    Duration : 2h 28mn
    Overall bit rate : 4 707 Kbps
    Movie name : Spectre by_IVAN@190282
    Encoded date : UTC 2016-02-12 11:17:17
    Writing application : mkvmerge v8.8.0 ('Wind at my back') 64bit
    Writing library : libebml v1.3.3 + libmatroska v1.4.4
    Attachements : cover.png
    DURATION : 02:16:52.955000000
    NUMBER_OF_FRAMES : 1089
    NUMBER_OF_BYTES : 34865
    _STATISTICS_WRITING_APP : mkvmerge v8.8.0 ('Wind at my back') 64bit
    _STATISTICS_WRITING_DATE_UT : 2016-02-12 11:17:17
    _STATISTICS_TAGS : BPS DURATION NUMBER_OF_FRAMES NUMBER_OF_BYTES
    Video
    ID : 1
    Format : AVC
    Format/Info : Advanced Video Codec
    Format profile : High@L4.1
    Format settings, CABAC : Yes
    Format settings, ReFrames : 11 frames
    Codec ID : V_MPEG4/ISO/AVC
    Duration : 2h 28mn
    Bit rate : 3 718 Kbps
    Width : 1 142 pixels
    Height : 480 pixels
    Display aspect ratio : 2.40:1
    Frame rate mode : Constant
    Frame rate : 23.976 fps
    Color space : YUV
    Chroma subsampling : 4:2:0
    Bit depth : 8 bits
    Scan type : Progressive
    Bits/(Pixel*Frame) : 0.283
    Stream size : 3.85 GiB (79%)
    Title : Spectre by_IVAN@190282
    Writing library : x264 core 148 r2665kMod a01e339
    Encoding settings : cabac=1 / ref=11 / deblock=1:-3:-3 / analyse=0x3:0x133 / me=umh / subme=11 / psy=1 / fade_compensate=0.00 / psy_rd=1.00:0.05 / mixed_ref=1 / me_range=48 / chroma_me=1 / trellis=2 / 8x8dct=1 / cqm=0 / deadzone=21,11 / fast_pskip=0 / chroma_qp_offset=-3 / threads=6 / lookahead_threads=6 / sliced_threads=0 / nr=0 / decimate=1 / interlaced=0 / bluray_compat=0 / constrained_intra=0 / fgo=0 / bframes=16 / b_pyramid=2 / b_adapt=2 / b_bias=0 / direct=3 / weightb=1 / open_gop=0 / weightp=2 / keyint=240 / keyint_min=23 / scenecut=40 / intra_refresh=0 / rc_lookahead=60 / rc=crf / mbtree=0 / crf=16.8000 / qcomp=0.60 / qpmin=0 / qpmax=69 / qpstep=4 / vbv_maxrate=50000 / vbv_bufsize=62500 / crf_max=0.0 / nal_hrd=none / filler=0 / ip_ratio=1.40 / pb_ratio=1.30 / aq=3:0.70
    Language : English
    Default : Yes
    Forced : No
    Color range : Limited
    Color primaries : BT.709
    Transfer characteristics : BT.709
    Matrix coefficients : BT.709
    DURATION : 02:28:06.837000000
    NUMBER_OF_FRAMES : 213071
    NUMBER_OF_BYTES : 4230936734
    _STATISTICS_WRITING_APP : mkvmerge v8.8.0 ('Wind at my back') 64bit
    _STATISTICS_WRITING_DATE_UT : 2016-02-12 11:17:17
    _STATISTICS_TAGS : BPS DURATION NUMBER_OF_FRAMES NUMBER_OF_BYTES
    Audio #1
    ID : 2
    Format : AC-3
    Format/Info : Audio Coding 3
    Mode extension : CM (complete main)
    Format settings, Endianness : Big
    Codec ID : A_AC3
    Duration : 2h 28mn
    Bit rate mode : Constant
    Bit rate : 448 Kbps
    Channel(s) : 6 channels
    Channel positions : Front: L C R, Side: L R, LFE
    Sampling rate : 48.0 KHz
    Compression mode : Lossy
    Stream size : 475 MiB (10%)
    Title : Dub Bluray EUR
    Default : Yes
    Forced : No
    Audio #2
    ID : 3
    Format : AC-3
    Format/Info : Audio Coding 3
    Mode extension : CM (complete main)
    Format settings, Endianness : Big
    Codec ID : A_AC3
    Duration : 2h 28mn
    Bit rate mode : Constant
    Bit rate : 448 Kbps
    Channel(s) : 6 channels
    Channel positions : Front: L C R, Side: L R, LFE
    Sampling rate : 48.0 KHz
    Compression mode : Lossy
    Stream size : 475 MiB (10%)
    Title : Eng
    Language : English
    Default : No
    Forced : No
    Text #1
    ID : 4
    Format : UTF-8
    Codec ID : S_TEXT/UTF8
    Codec ID/Info : UTF-8 Plain Text
    Title : Rus
    Default : No
    Forced : No
    Text #2
    ID : 5
    Format : UTF-8
    Codec ID : S_TEXT/UTF8
    Codec ID/Info : UTF-8 Plain Text
    Title : Eng
    Language : English
    Default : No
    Forced : No
    Menu
    00:00:00.000 : en:Chapter 1
    00:07:33.411 : en:Chapter 2
    00:12:00.302 : en:Chapter 3
    00:12:59.445 : en:Chapter 4
    00:15:55.370 : en:Chapter 5
    00:20:56.922 : en:Chapter 6
    00:23:15.434 : en:Chapter 7
    00:25:52.675 : en:Chapter 8
    00:29:59.255 : en:Chapter 9
    00:38:14.041 : en:Chapter 10
    00:46:43.842 : en:Chapter 11
    00:49:46.315 : en:Chapter 12
    00:53:19.528 : en:Chapter 13
    00:55:10.222 : en:Chapter 14
    00:58:07.858 : en:Chapter 15
    01:08:42.326 : en:Chapter 16
    01:12:22.337 : en:Chapter 17
    01:15:45.707 : en:Chapter 18
    01:19:10.162 : en:Chapter 19
    01:22:46.836 : en:Chapter 20
    01:25:09.686 : en:Chapter 21
    01:28:07.738 : en:Chapter 22
    01:31:15.552 : en:Chapter 23
    01:36:02.756 : en:Chapter 24
    01:37:35.890 : en:Chapter 25
    01:40:35.404 : en:Chapter 26
    01:45:16.518 : en:Chapter 27
    01:48:44.475 : en:Chapter 28
    01:50:31.750 : en:Chapter 29
    01:52:36.541 : en:Chapter 30
    01:53:08.448 : en:Chapter 31
    01:59:16.356 : en:Chapter 32
    02:07:11.832 : en:Chapter 33
    02:07:39.109 : en:Chapter 34
    02:09:22.671 : en:Chapter 35
    02:12:48.585 : en:Chapter 36
    02:22:00.843 : en:Chapter 37

    x264 log

    VIDEO ENCODING
    x264 [info]: frame I:1500 Avg QP:14.89 size: 92767 PSNR Mean Y:48.15 U:53.06 V:54.45 Avg:49.33 Global:48.98
    x264 [info]: frame P:45725 Avg QP:16.38 size: 37199 PSNR Mean Y:46.23 U:51.01 V:52.49 Avg:47.39 Global:46.83
    x264 [info]: frame B:165846 Avg QP:18.28 size: 14416 PSNR Mean Y:45.24 U:51.04 V:52.74 Avg:46.52 Global:46.08
    x264 [info]: consecutive B-frames: 2.9% 3.4% 11.5% 11.4% 12.0% 37.5% 6.6% 1.7% 2.3% 1.3% 2.0% 1.2% 2.5% 2.7% 0.7% 0.3% 0.1%
    x264 [total]: encoded 213071 frames, 5.44 fps, 3808.72 kb/s, duration 10:53:15.28

    Скриншот c названием фильма

    Скриншоты

    Убедительная просьба пожалуйста кто скачал не бросайте раздачу!!!
    Скачать .torrent

    Скачать торрент-файл бесплатно и на максимальной скорости!

    Как скачивать? · Что такое торрент? · Рейтинг и ограничения

    !ВНИМАНИЕ!
    Сайт не распространяет и не хранит электронные версии произведений, а занимается лишь лишь предоставлением доступа к создаваемому пользователями каталогу ссылок на торрент-файлы, которые содержат только списки хеш-сумм, убедительная просьба с жалобами обращаться напрямую к пользователю. Файлы для обмена на трекере предоставлены пользователями сайта, и администрация не несёт ответственности за их содержание. Просьба не заливать файлы, защищенные авторскими правами, а также файлы нелегального содержания!


    _________________
    [Профиль] [ЛС]
    Показать сообщения:    
    Ответить на тему

    Текущее время: Сегодня, в 12:45

    Часовой пояс: GMT + 2



    Вы не можете начинать темы
    Вы не можете отвечать на сообщения
    Вы не можете редактировать свои сообщения
    Вы не можете удалять свои сообщения
    Вы не можете голосовать в опросах
    Вы не можете прикреплять файлы к сообщениям
    Вы не можете скачивать файлы