BitTorrentTracker PerecTracker.org
BitTorrentTracker PerecTracker.org
    
Регистрация  ·  Вход
 
 · 
Забыли пароль?

  • [ATV3] Холодный фронт (Роман Волобуев) [2015, Россия, Франция , Триллер, мелодрама, WEB-DL, HD (1080p)] Original

    Ответить на тему
     
    Автор Сообщение

    Flirldrerve

    Создавать темы 13-Фев-2016 01:26

           

    [Цитировать]

    Холодный фронт
    «Every monster needs a home»
    6.056 / 10 6.20 / 10
    -Год выпуска: 2015
    Страна: Россия, Франция
    Жанр: Триллер, мелодрама
    Продолжительность: 01:32:22
    Перевод: Не требуется
    Оригинальная аудиодорожка: Есть
    Cубтитры: Нет
    Режиссёр: Роман Волобуев
    Сценарий: Роман Волобуев, Светлана Устинова, Даша Чаруша
    Продюсер: Илья Стюарт, Михаил Финогенов, Мурад Османн
    Оператор: Михаил Хасая
    Композитор: Даша Чаруша
    Художник: Екатерина Щеглова, Анна Кудевич, Франсуа Дюпуа
    В ролях: Светлана Устинова, Даша Чаруша, Александр Молочников, Полина Аскери, Кристоф Ле Тессон, Татьяна Абраменко, Александра Боярская
    Бюджет: €313 000
    Сборы в России: $37 818
    Мировая премьера:
    Премьера (РФ): 14 января 2016, «Арена»
    Описание: Давно разлюбившая друг друга пара — Саша, девушка из богатой семьи, и ее бойфренд Илья — проводят зимние каникулы в отрезанном от внешнего мира доме на берегу океана на севере Франции.
    В канун Нового года происходит два вроде бы не связанных между собой события: недалеко от дома героев прибой выбрасывает на берег тушу неизвестного науке животного, а тем же вечером Илья встречает в окрестностях Машу — русскую девушку, которая якобы случайно сошла с поезда не на той станции и которой негде ночевать. С Машей явно что-то не так, но Илья и Саша, увлеченные выяснением отношений, сперва не замечают зловещих странностей в поведении незванной гостьи.-Качество исходника: WEB-DL 1080p (NNMClub)
    Качество: WEB-DL
    Тип: HD (1080p)
    Контейнер: M4V
    Видео: H.264, 1920x804, 2.40:1, 4 350 Kbps, 24.000 fps
    Аудио 1: Русский/Оригинальная дорожка , AAC / 2.0 / 157 Kbps / 48.0 KHz
    Аудио 2: Русский/Оригинальная дорожка , AC-3 / 5.1 / 384 Kbps / 48.0 KHz
    -

    iTunes Meta Tags

    Sort Name: Холодный фронт
    XID: Apple:vendor_id:2015-861608
    contentID: 1079596249
    Copyright: © 2016 Хайпфилм
    Screenwriters: Роман Волобуев, Светлана Устинова, Даша Чаруша
    Producers: Илья Стюарт, Михаил Финогенов, Мурад Османн
    Director: Роман Волобуев
    Cast: Светлана Устинова, Даша Чаруша, Александр Молочников, Полина Аскери, Кристоф Ле Тессон, Татьяна Абраменко, Александра Боярская
    Studio: Hype Film, ИнкФильм, Leelame Production
    Rating: 136
    Long Description: Давно разлюбившая друг друга пара - Саша, девушка из богатой семьи, и ее бойфренд Илья - проводят зимние каникулы в отрезанном от внешнего мира доме на берегу океана на севере Франции.
    В канун Нового года происходит два вроде бы не связанных между собой события: недалеко от дома героев прибой выбрасывает на берег тушу неизвестного науке животного, а тем же вечером Илья встречает в окрестностях Машу - русскую девушку, которая якобы случайно сошла с поезда не на той станции и которой негде ночевать. С Машей явно что-то не так, но Илья и Саша, увлеченные выяснением отношений, сперва не замечают зловещих странностей в поведении незванной гостьи.
    Description: Давно разлюбившая друг друга пара - Саша, девушка из богатой семьи, и ее бойфренд Илья - проводят зимние каникулы в отрезанном от внешнего мира доме на берегу океана на севере Франции.
    Release Date: 2015-01-01T08:00:00Z
    Genre: Русское кино
    Artist: Роман Волобуев
    Name: Холодный фронт

    MediaInfo

    General
    Complete name : /Users/imac/HandBrake/Kholodnyy.front.WEB-DL.1080p.m4v
    Format : MPEG-4
    Codec ID : M4V  (M4V /M4A /mp42/isom)
    File size : 3.16 GiB
    Duration : 1h 32mn
    Overall bit rate mode : Variable
    Overall bit rate : 4 898 Kbps
    Movie name : Холодный фронт
    Performer : Роман Волобуев
    Director : Роман Волобуев
    Actor : Светлана Устинова / Даша Чаруша / Александр Молочников / Полина Аскери / Кристоф Ле Тессон / Татьяна Абраменко / Александра Боярская
    Screenplay by : Роман Волобуев / Светлана Устинова / Даша Чаруша
    Producer : Илья Стюарт / Михаил Финогенов / Мурад Османн
    Production studio : Hype Film, ИнкФильм, Leelame Production
    Genre : Русское кино
    ContentType : Short Film
    Description : Давно разлюбившая друг друга пара - Саша, девушка из богатой семьи, и ее бойфренд Илья - проводят зимние каникулы в отрезанном от внешнего мира доме на берегу океана на севере Франции.
    Recorded date : UTC 2015-01-01 08:00:00
    Encoded date : UTC 2016-02-12 16:37:19
    Tagged date : UTC 2016-02-12 16:39:20
    Copyright : © 2016 Хайпфилм
    Cover : Yes
    Rating : None
    Title/Sort : Холодный фронт
    LongDescription : Давно разлюбившая друг друга пара - Саша, девушка из богатой семьи, и ее бойфренд Илья - проводят зимние каникулы в отрезанном от внешнего мира доме на берегу океана на севере Франции. / В канун Нового года происходит два вроде бы не связанных между собой события: недалеко от дома героев прибой выбрасывает на берег тушу неизвестного науке животного, а тем же вечером Илья встречает в окрестностях Машу - русскую девушку, которая якобы случайно сошла с поезда не на той станции и которой негде ночевать. С Машей явно что-то не так, но Илья и Саша, увлеченные выяснением отношений, сперва не замечают зловещих странностей в поведении незванной гостьи.
    AppleStoreCatalogID : 1079596249
    Vendor : Apple:vendor_id:2015-861608
    ContentRating : ru-movie|18+|400|
    Video #1
    ID : 1
    Format : AVC
    Format/Info : Advanced Video Codec
    Format profile : High@L4
    Format settings, CABAC : Yes
    Format settings, ReFrames : 5 frames
    Codec ID : avc1
    Codec ID/Info : Advanced Video Coding
    Duration : 1h 32mn
    Bit rate : 4 350 Kbps
    Width : 1 920 pixels
    Height : 804 pixels
    Display aspect ratio : 2.40:1
    Frame rate mode : Variable
    Frame rate : 24.000 fps
    Minimum frame rate : 23.810 fps
    Maximum frame rate : 24.390 fps
    Color space : YUV
    Chroma subsampling : 4:2:0
    Bit depth : 8 bits
    Scan type : Progressive
    Bits/(Pixel*Frame) : 0.117
    Stream size : 2.81 GiB (89%)
    Title : Main Program
    Language : Russian
    Encoded date : UTC 2016-02-12 16:37:19
    Tagged date : UTC 2016-02-12 16:38:26
    Color range : Limited
    Color primaries : BT.709
    Transfer characteristics : BT.709
    Matrix coefficients : BT.709
    Menus : 4,5
    Video #2
    ID : 5
    Format : JPEG
    Codec ID : jpeg
    Duration : 1h 32mn
    Bit rate mode : Variable
    Bit rate : 717 bps
    Width : 640 pixels
    Height : 268 pixels
    Display aspect ratio : 2.40:1
    Frame rate mode : Variable
    Frame rate : 0.003 fps
    Minimum frame rate : 0.002 fps
    Maximum frame rate : 0.004 fps
    Color space : YUV
    Chroma subsampling : 4:2:0
    Bit depth : 8 bits
    Compression mode : Lossy
    Bits/(Pixel*Frame) : 1.393
    Stream size : 467 KiB (0%)
    Title : Chapter Images
    Language : Russian
    Default : No
    Encoded date : UTC 2016-02-12 16:38:32
    Tagged date : UTC 2016-02-12 16:38:32
    Menu For : 1
    Audio #1
    ID : 2
    Format : AAC
    Format/Info : Advanced Audio Codec
    Format profile : LC
    Codec ID : 40
    Duration : 1h 32mn
    Bit rate mode : Variable
    Bit rate : 157 Kbps
    Maximum bit rate : 254 Kbps
    Channel(s) : 2 channels
    Channel positions : Front: L R
    Sampling rate : 48.0 KHz
    Frame rate : 46.875 fps (1024 spf)
    Compression mode : Lossy
    Stream size : 104 MiB (3%)
    Title : Russian Stereo
    Language : Russian
    Default : Yes
    Alternate group : 1
    Encoded date : UTC 2016-02-12 16:37:19
    Tagged date : UTC 2016-02-12 16:37:23
    Fallback From : 3
    Audio #2
    ID : 3
    Format : AC-3
    Format/Info : Audio Coding 3
    Mode extension : CM (complete main)
    Format settings, Endianness : Big
    Codec ID : ac-3
    Duration : 1h 32mn
    Bit rate mode : Constant
    Bit rate : 384 Kbps
    Channel(s) : 6 channels
    Channel positions : Front: L C R, Side: L R, LFE
    Sampling rate : 48.0 KHz
    Frame rate : 31.250 fps (1536 spf)
    Bit depth : 16 bits
    Compression mode : Lossy
    Stream size : 254 MiB (8%)
    Title : Russian DD 5.1
    Language : Russian
    Default : Inherited From: 2
    Alternate group : 1
    Encoded date : UTC 2016-02-12 16:37:19
    Tagged date : UTC 2016-02-12 16:37:22
    Fallback To : 2
    Menu #1
    00:00:00.000 : Глава 1
    00:05:36.000 : Глава 2
    00:11:04.958 : Глава 3
    00:16:24.083 : Глава 4
    00:21:52.416 : Глава 5
    00:27:51.249 : Глава 6
    00:33:01.624 : Глава 7
    00:40:47.290 : Глава 8
    00:46:02.290 : Глава 9
    00:52:00.081 : Глава 10
    00:57:57.164 : Глава 11
    01:03:23.997 : Глава 12
    01:10:01.205 : Глава 13
    01:15:47.705 : Глава 14
    01:21:10.663 : Глава 15
    01:28:03.038 : Глава 16
    Menu #2
    ID : 4
    Codec ID : text
    Duration : 1h 32mn
    Language : Russian
    Encoded date : UTC 2016-02-12 16:38:27
    Tagged date : UTC 2016-02-12 16:38:27
    Menu For : 1
    00:00:00.000 : Глава 1
    00:05:36.000 : Глава 2
    00:11:04.958 : Глава 3
    00:16:24.083 : Глава 4
    00:21:52.416 : Глава 5
    00:27:51.249 : Глава 6
    00:33:01.624 : Глава 7
    00:40:47.290 : Глава 8
    00:46:02.290 : Глава 9
    00:52:00.081 : Глава 10
    00:57:57.164 : Глава 11
    01:03:23.997 : Глава 12
    01:10:01.205 : Глава 13
    01:15:47.705 : Глава 14
    01:21:10.663 : Глава 15
    01:28:03.038 : Глава 16
    Bit rate mode : VBR

    Скриншоты

    -

    Релиз подготовлен для просмотра на Apple TV, iPad, iPhone, iPod Touch.
    Для просмотра данного релиза на компьютере с ОС Windows рекомендуется использовать VLC media player
    Скачать .torrent

    Скачать торрент-файл бесплатно и на максимальной скорости!

    Как скачивать? · Что такое торрент? · Рейтинг и ограничения

    !ВНИМАНИЕ!
    Сайт не распространяет и не хранит электронные версии произведений, а занимается лишь лишь предоставлением доступа к создаваемому пользователями каталогу ссылок на торрент-файлы, которые содержат только списки хеш-сумм, убедительная просьба с жалобами обращаться напрямую к пользователю. Файлы для обмена на трекере предоставлены пользователями сайта, и администрация не несёт ответственности за их содержание. Просьба не заливать файлы, защищенные авторскими правами, а также файлы нелегального содержания!


    _________________
    [Профиль] [ЛС]
    Показать сообщения:    
    Ответить на тему

    Текущее время: Сегодня, в 01:58

    Часовой пояс: GMT + 2



    Вы не можете начинать темы
    Вы не можете отвечать на сообщения
    Вы не можете редактировать свои сообщения
    Вы не можете удалять свои сообщения
    Вы не можете голосовать в опросах
    Вы не можете прикреплять файлы к сообщениям
    Вы не можете скачивать файлы