BitTorrentTracker PerecTracker.org
BitTorrentTracker PerecTracker.org
    
Регистрация  ·  Вход
 
 · 
Забыли пароль?

  • Хороший динозавр / The Good Dinosaur (Питер Сон / Peter Sohn) [2015, США, фэнтези, комедия, приключения, семейный, BDRip-AVC] Dub (Line) + Sub Eng, Fre, Spa + Original Eng

    Ответить на тему
     
    Автор Сообщение

    rechyn

    Создавать темы 12-Фев-2016 17:02

           

    [Цитировать]


    Хороший динозавр
    The Good Dinosaur
    «Tiny but tough»
    -Страна: США | Pixar Animation Studios, Walt Disney Pictures
    Жанр: фэнтези, комедия, приключения, семейный
    Продолжительность: 01:33:39
    Год выпуска: 2015
    Перевод: Профессиональный (дублированный) (центральный канал line)
    Русские субтитры: нет-Режиссёр: Питер Сон / Peter Sohn
    Роли озвучивали: Джеффри Райт, Фрэнсис МакДорманд, Малиа Нипай-Падилья, Райан Типл, Джек МакГроу, Маркус Скрибнер, Рэймонд Очоа, Джек Брайт, Питер Сон, Стив Зан, Мэнди Фройнд, Стивен Клэй Хантер, А.Дж. Бакли, Анна Пакуин, Сэм Эллиотт, Дэвид Боат, Кэрри Пафф, Кэлам Грант, Джон Ратценбергер-ОписаниеПо сюжету динозавры не вымерли, а эволюционировали в разумных существ и живут и здравствуют на Земле. А вот люди остались на довольно примитивной стадии развития. Фильм расскажет историю дружбы динозавра и маленького мальчика.-
    Хороший динозавр — американский компьютеро-анимационный фильм студии Pixar. Премьера состоялась 25 ноября 2015 года. Режиссёр — Питер Сон, ранее работавший над мультфильмом «Переменная облачность»
    Релиз:

    Сэмпл

    IMDb: 6.90 (29 869)
    Качество: BDRip-AVC The Good Dinosaur 2015 1080p Blu-ray Remux AVC DTS-HD MA 7.1 - KRaLiMaRKo
    Формат: MKV
    Видео: AVC 2185 Kbps 864 x 362 (2.387) 23.976 fps
    Аудио: AC-3 384 Kbps 6 channels, 48.0 KHz DUB Line
    Аудио 2: AC-3 384 Kbps 6 channels, 48.0 KHz Eng
    Субтитры: Eng, Fre, Spa
    MI | Log

    Log

    x264 [info]: frame I:1193 Avg QP:17.18 size: 82593
    x264 [info]: frame P:36356 Avg QP:18.83 size: 22138
    x264 [info]: frame B:97161 Avg QP:21.59 size: 6914
    x264 [info]: consecutive B-frames: 5.9% 4.8% 10.5% 33.1% 17.7% 19.2% 3.4% 1.7% 1.1% 0.9% 0.4% 0.4% 0.2% 0.2% 0.5%
    x264 [info]: mb I I16..4: 4.0% 61.2% 34.8%
    x264 [info]: mb P I16..4: 0.6% 11.6% 2.3% P16..4: 27.6% 24.6% 17.6% 5.2% 1.5% skip: 9.0%
    x264 [info]: mb B I16..4: 0.2% 2.4% 0.4% B16..8: 26.9% 18.6% 4.5% direct: 7.6% skip:39.4% L0:38.3% L1:40.6% BI:21.1%
    x264 [info]: 8x8 transform intra:77.7% inter:50.6%
    x264 [info]: direct mvs spatial:99.6% temporal:0.4%
    x264 [info]: coded y,uvDC,uvAC intra: 90.6% 90.9% 72.4% inter: 28.5% 22.4% 7.3%
    x264 [info]: i16 v,h,dc,p: 22% 18% 4% 55%
    x264 [info]: i8 v,h,dc,ddl,ddr,vr,hd,vl,hu: 7% 12% 8% 9% 12% 10% 14% 11% 17%
    x264 [info]: i4 v,h,dc,ddl,ddr,vr,hd,vl,hu: 9% 10% 6% 9% 14% 12% 14% 10% 16%
    x264 [info]: i8c dc,h,v,p: 41% 26% 13% 19%
    x264 [info]: Weighted P-Frames: Y:6.7% UV:4.8%
    x264 [info]: ref P L0: 56.0% 12.2% 10.9% 5.1% 3.5% 3.1% 2.4% 1.7% 1.3% 1.3% 1.1% 1.2% 0.3% 0.0%
    x264 [info]: ref B L0: 75.7% 8.7% 5.5% 2.3% 2.3% 1.4% 1.4% 0.9% 0.9% 0.5% 0.3%
    x264 [info]: ref B L1: 93.1% 6.9%
    x264 [info]: kb/s:2242.83
    x264 [total]: encoded 134710 frames, 14.18 fps, 2242.83 kb/s, duration 2:38:19.69
    Format : Matroska
    Format version : Version 4 / Version 2
    File size : 1.97 GiB
    Duration : 1h 33mn
    Overall bit rate : 3 013 Kbps
    Encoded date : UTC 2016-02-12 09:53:45
    Writing application : mkvmerge v6.7.0 ('Back to the Ground') 32bit built on Jan 8 2014 15:03:17
    Writing library : libebml v1.3.0 + libmatroska v1.4.1
    Video
    ID : 1
    Format : AVC
    Format/Info : Advanced Video Codec
    Format profile : High@L4.1
    Format settings, CABAC : Yes
    Format settings, ReFrames : 12 frames
    Codec ID : V_MPEG4/ISO/AVC
    Duration : 1h 33mn
    Bit rate : 2 185 Kbps
    Width : 864 pixels
    Height : 362 pixels
    Display aspect ratio : 2.40:1
    Frame rate mode : Constant
    Frame rate : 23.976 fps
    Color space : YUV
    Chroma subsampling : 4:2:0
    Bit depth : 8 bits
    Scan type : Progressive
    Bits/(Pixel*Frame) : 0.291
    Stream size : 1.43 GiB (73%)
    Title : The Good Dinosaur (2015) [perectracker.org]
    Writing library : x264 core 148 r2638kMod 7599210
    Encoding settings : cabac=1 / ref=12 / deblock=1:-2:-2 / analyse=0x3:0x133 / me=umh / subme=11 / psy=1 / fade_compensate=0.00 / psy_rd=1.00:0.05 / mixed_ref=1 / me_range=48 / chroma_me=1 / trellis=2 / 8x8dct=1 / cqm=0 / deadzone=21,11 / fast_pskip=0 / chroma_qp_offset=-3 / threads=11 / lookahead_threads=2 / sliced_threads=0 / nr=0 / decimate=1 / interlaced=0 / bluray_compat=0 / constrained_intra=0 / fgo=0 / bframes=14 / b_pyramid=2 / b_adapt=2 / b_bias=0 / direct=3 / weightb=1 / open_gop=0 / weightp=2 / keyint=250 / keyint_min=23 / scenecut=40 / intra_refresh=0 / rc_lookahead=60 / rc=crf / mbtree=0 / crf=17.6000 / qcomp=0.60 / qpmin=0 / qpmax=69 / qpstep=4 / vbv_maxrate=50000 / vbv_bufsize=62500 / crf_max=0.0 / nal_hrd=none / filler=0 / ip_ratio=1.40 / pb_ratio=1.30 / aq=3:0.90
    Language : English
    Default : Yes
    Forced : No
    Audio #1
    ID : 2
    Format : AC-3
    Format/Info : Audio Coding 3
    Mode extension : CM (complete main)
    Format settings, Endianness : Big
    Codec ID : A_AC3
    Duration : 1h 33mn
    Bit rate mode : Constant
    Bit rate : 384 Kbps
    Channel(s) : 6 channels
    Channel positions : Front: L C R, Side: L R, LFE
    Sampling rate : 48.0 KHz
    Compression mode : Lossy
    Stream size : 257 MiB (13%)
    Title : DUB Line
    Language : Russian
    Default : Yes
    Forced : No
    Audio #2
    ID : 3
    Format : AC-3
    Format/Info : Audio Coding 3
    Mode extension : CM (complete main)
    Format settings, Endianness : Big
    Codec ID : A_AC3
    Duration : 1h 33mn
    Bit rate mode : Constant
    Bit rate : 384 Kbps
    Channel(s) : 6 channels
    Channel positions : Front: L C R, Side: L R, LFE
    Sampling rate : 48.0 KHz
    Compression mode : Lossy
    Stream size : 257 MiB (13%)
    Title : Original
    Language : English
    Default : No
    Forced : No
    Text #1
    ID : 4
    Format : UTF-8
    Codec ID : S_TEXT/UTF8
    Codec ID/Info : UTF-8 Plain Text
    Title : Full
    Language : English
    Default : No
    Forced : No
    Text #2
    ID : 5
    Format : UTF-8
    Codec ID : S_TEXT/UTF8
    Codec ID/Info : UTF-8 Plain Text
    Title : SDH
    Language : English
    Default : No
    Forced : No
    Text #3
    ID : 6
    Format : UTF-8
    Codec ID : S_TEXT/UTF8
    Codec ID/Info : UTF-8 Plain Text
    Title : Full
    Language : French
    Default : No
    Forced : No
    Text #4
    ID : 7
    Format : UTF-8
    Codec ID : S_TEXT/UTF8
    Codec ID/Info : UTF-8 Plain Text
    Title : Full
    Language : Spanish
    Default : No
    Forced : No
    Menu
    00:00:00.000 : en:00:00:00.000
    00:03:37.968 : en:00:03:37.968
    00:06:16.459 : en:00:06:16.459
    00:08:14.160 : en:00:08:14.160
    00:12:12.607 : en:00:12:12.607
    00:14:33.915 : en:00:14:33.915
    00:17:42.353 : en:00:17:42.353
    00:21:10.644 : en:00:21:10.644
    00:22:58.168 : en:00:22:58.168
    00:26:41.058 : en:00:26:41.058
    00:29:02.616 : en:00:29:02.616
    00:33:10.363 : en:00:33:10.363
    00:35:28.668 : en:00:35:28.668
    00:38:14.459 : en:00:38:14.459
    00:41:08.841 : en:00:41:08.841
    00:45:42.948 : en:00:45:42.948
    00:47:47.948 : en:00:47:47.948
    00:51:48.272 : en:00:51:48.272
    00:55:46.969 : en:00:55:46.969
    01:00:22.953 : en:01:00:22.953
    01:03:59.002 : en:01:03:59.002
    01:05:27.215 : en:01:05:27.215
    01:07:11.778 : en:01:07:11.778
    01:11:06.429 : en:01:11:06.429
    01:13:43.377 : en:01:13:43.377
    01:16:01.432 : en:01:16:01.432
    01:19:08.494 : en:01:19:08.494
    01:23:56.865 : en:01:23:56.865
    01:26:01.114 : en:01:26:01.114[/pre]

    Скриншоты






    Скачать .torrent

    Скачать торрент-файл бесплатно и на максимальной скорости!

    Как скачивать? · Что такое торрент? · Рейтинг и ограничения

    !ВНИМАНИЕ!
    Сайт не распространяет и не хранит электронные версии произведений, а занимается лишь лишь предоставлением доступа к создаваемому пользователями каталогу ссылок на торрент-файлы, которые содержат только списки хеш-сумм, убедительная просьба с жалобами обращаться напрямую к пользователю. Файлы для обмена на трекере предоставлены пользователями сайта, и администрация не несёт ответственности за их содержание. Просьба не заливать файлы, защищенные авторскими правами, а также файлы нелегального содержания!


    _________________
    [Профиль] [ЛС]
    Показать сообщения:    
    Ответить на тему

    Текущее время: Сегодня, в 22:27

    Часовой пояс: GMT + 2



    Вы не можете начинать темы
    Вы не можете отвечать на сообщения
    Вы не можете редактировать свои сообщения
    Вы не можете удалять свои сообщения
    Вы не можете голосовать в опросах
    Вы не можете прикреплять файлы к сообщениям
    Вы не можете скачивать файлы