BitTorrentTracker PerecTracker.org
BitTorrentTracker PerecTracker.org
    
Регистрация  ·  Вход
 
 · 
Забыли пароль?

  • Великий мышиный сыщик / The Great Mouse Detective (Рон Клементс, Барни Мэттинсон, Дэвид Микенер) [2003 г., мультфильм, мюзикл, детектив, приключения, семейный, BDRip, HD (1080p, 720p)] Dub (rus), AVO (rus), Original, sub (rus, eng)

    Ответить на тему
     
    Автор Сообщение

    Light

    Создавать темы 12-Фев-2016 12:50

           

    [Цитировать]

    Великий мышиный сыщик / The Great Mouse Detective«Can he bring the dirty rat to justice?»
    7.10 / 10 | 6.90 / 10 | 7.998 / 10 | MPAA: G
    -Год выпуска: 1986
    Страна: США
    Жанр: мультфильм, мюзикл, детектив, приключения, семейный
    Продолжительность: 01:14:16
    Перевод: Профессиональный дублированный перевод, авторский закадровый перевод
    Субтитры: Русские форсированные и полные, английские полные
    Режиссер: Рон Клементс, Барни Мэттинсон, Дэвид Микенер
    Сценарий: Питер Янг, Вэнс Джерри, Стив Хулетт
    Продюсер: Барни Мэттинсон
    Композитор: Генри Манчини
    В ролях: Винсент Прайс, Бэрри Ингэм, Вэл Бэттин, Сюзанна Полащек, Кэнди Кандидо, Диана Чесни, Ив Бреннер, Алан Янг, Бэзил Рэтбоун, Лори Майн-Бюджет: $14 000 000
    Сборы в США: $38 625 550
    Мировая премьера: 2 июля 1986
    Релиз на DVD: 18 марта 2010, «Уолт Дисней Компани СНГ»-Описание: Оливия обращается за помощью к Базилю с Бэйкер-стрит. Она просит найти исчезнувшего отца. Базиль, его друг и соратник доктор Доусон, а также пес Тоби берутся за расследование. Следы ведут к профессору Ратигану, крупному преступнику, которому Базилю и придется противостоять.-Исходник: Blu-Ray (HDClub)
    Контейнер: M4V
    Видео кодек:AVC
    Аудио кодек: AAC, AC3
    Видео 1080p Release: 1920x1080 at 23.976 fps, MPEG-4 AVC, ~19300 kbps avg
    Видео 720p Release: 1280x720 at 23.976 fps, MPEG-4 AVC, ~6000 kbps avg
    Аудио №1: Stereo RUS (1080p и 720p - 160 kbps) / Дубляж
    Аудио №2: Stereo RUS (1080p и 720p - 160 kbps) / Авторский закадровый, А.Михалев
    Аудио №3: Stereo ENG (1080p и 720p - 160 kbps) / Оригинал
    Аудио №4: AC-3 ENG (1080p и 720p - 640 kbps) / Оригинал
    Субтитры №1: Russian Forced
    Субтитры №2: Russian Full
    Субтитры №3: English Full-SD версия мультфильма-

    iTunes MetaTag

    Sort Name: Great Mouse Detective
    XID: Apple:vendor_id:1986-19177
    contentID: 187499741
    Copyright: © Disney 2006
    Screenwriters: Питер Янг, Вэнс Джерри, Стив Хулетт
    Producers: Барни Мэттинсон
    Director: Рон Клементс, Барни Мэттинсон, Дэвид Микенер
    Cast: Винсент Прайс, Бэрри Ингэм, Вэл Бэттин, Сюзанна Полащек, Кэнди Кандидо, Диана Чесни, Ив Бреннер, Алан Янг, Бэзил Рэтбоун, Лори Майн
    Studio: Walt Disney Pictures
    Rating: 51
    Long Description: Оливия обращается за помощью к Базилю с Бэйкер-стрит. Она просит найти исчезнувшего отца. Базиль, его друг и соратник доктор Доусон, а также пес Тоби берутся за расследование. Следы ведут к профессору Ратигану, крупному преступнику, которому Базилю и придется противостоять.
    Description: Оливия обращается за помощью к Базилю с Бэйкер-стрит. Она просит найти исчезнувшего отца. Базиль, его друг и соратник доктор Доусон, а также пес Тоби берутся за расследование. Следы ведут к профессору Ратигану, крупному преступнику, которому Базилю и придется противостоять.
    Release Date: 1986-07-02T07:00:00Z
    Genre: Kids & Family
    Artist: Ron Clements, Burny Mattinson, Dave Michener & John Musker
    Name: The Great Mouse Detective

    MediaInfo 1080p Release

    Общее
    Полное имя                               : Z:\Music\iTunes\iTunes Media\Movies\The Great Mouse Detective\The Great Mouse Detective (1080p HD).m4v
    Формат                                   : MPEG-4
    Идентификатор кодека                     : M4V
    Размер файла                             : 10,6 Гбайт
    Продолжительность                        : 1 ч. 14 м.
    Режим общего битрейта                    : Переменный
    Общий поток                              : 20,4 Мбит/сек
    Название фильма                          : The Great Mouse Detective
    Исполнитель                              : Ron Clements, Burny Mattinson, Dave Michener & John Musker
    Жанр                                     : Kids & Family
    Дата записи                              : UTC 1986-07-02 07:00:00
    Дата кодирования                         : UTC 2013-01-14 20:10:21
    Дата пометки                             : UTC 2013-01-14 21:01:07
    Правообладатель                          : © Disney 2006
    Обложка                                  : Yes
    sonm                                     : Great Mouse Detective
    desc                                     : Оливия обращается за помощью к Базилю с Бэйкер-стрит. Она просит найти исчезнувшего отца. Базиль, его друг и соратник доктор Доусон, а также пес Тоби берутся за расследование. Следы ведут к профессору Ратигану, крупному преступнику, которому Базилю и придется противостоять.
    ldes                                     : Оливия обращается за помощью к Базилю с Бэйкер-стрит. Она просит найти исчезнувшего отца. Базиль, его друг и соратник доктор Доусон, а также пес Тоби берутся за расследование. Следы ведут к профессору Ратигану, крупному преступнику, которому Базилю и придется противостоять.
    hdvd                                     : 2
    stik                                     : 9
    rtng                                     : 0
    cnID                                     : 187499741
    xid                                      : Apple:vendor_id:1986-19177
    iTunEXTC                                 : au-tv|G|300|
    iTunMOVI                                 : <?xml version="1.0" encoding="UTF-8"?> / <!DOCTYPE plist PUBLIC "-//Apple//DTD PLIST 1.0//EN" "http://anonym.to/?http://www.apple.com/DTDs/PropertyList-1.0.dtd"> / <plist version="1.0"> / <dict> /  <key>cast</key> /  <array> /   <dict> /    <key>name</key> /    <string>Винсент Прайс</string> /   </dict> /   <dict> /    <key>name</key> /    <string>Бэрри Ингэм</string> /   </dict> /   <dict> /    <key>name</key> /    <string>Вэл Бэттин</string> /   </dict> /   <dict> /    <key>name</key> /    <string>Сюзанна Полащек</string> /   </dict> /   <dict> /    <key>name</key> /    <string>Кэнди Кандидо</string> /   </dict> /   <dict> /    <key>name</key> /    <string>Диана Чесни</string> /   </dict> /   <dict> /    <key>name</key> /    <string>Ив Бреннер</string> /   </dict> /   <dict> /    <key>name</key> /    <string>Алан Янг</string> /   </dict> /   <dict> /    <key>name</key> /    <string>Бэзил Рэтбоун</string> /   </dict> /   <dict> /    <key>name</key> /    <string>Лори Майн</string> /   </dict> /  </array> /  <key>directors</key> /  <array> /   <dict> /    <key>name</key> /    <string>Рон Клементс</string> /   </dict> /   <dict> /    <key>name</key> /    <string>Барни Мэттинсон</string> /   </dict> /   <dict> /    <key>name</key> /    <string>Дэвид Микенер</string> /   </dict> /  </array> /  <key>producers</key> /  <array> /   <dict> /    <key>name</key> /    <string>Барни Мэттинсон</string> /   </dict> /  </array> /  <key>screenwriters</key> /  <array> /   <dict> /    <key>name</key> /    <string>Питер Янг</string> /   </dict> /   <dict> /    <key>name</key> /    <string>Вэнс Джерри</string> /   </dict> /   <dict> /    <key>name</key> /    <string>Стив Хулетт</string> /   </dict> /  </array> /  <key>studio</key> /  <string>Walt Disney Pictures</string> / </dict> / </plist>
    Видео #1
    Идентификатор                            : 1
    Формат                                   : AVC
    Формат/Информация                        : Advanced Video Codec
    Профиль формата                          : High@L4.0
    Параметр CABAC формата                   : Да
    Параметр ReFrames формата                : 4 кадра
    Идентификатор кодека                     : avc1
    Идентификатор кодека/Информация          : Advanced Video Coding
    Продолжительность                        : 1 ч. 14 м.
    Вид битрейта                             : Переменный
    Битрейт                                  : 19,3 Мбит/сек
    Ширина                                   : 1920 пикселей
    Высота                                   : 1080 пикселей
    Соотношение сторон                       : 16:9
    Режим частоты кадров                     : Переменный
    Частота кадров                           : 23,976 кадра/сек
    Минимальная частота кадров               : 23,974 кадра/сек
    Максимальная частота кадров              : 23,981 кадра/сек
    Цветовое пространство                    : YUV
    Субдискретизация насыщенности            : 4:2:0
    Битовая глубина                          : 8 бит
    Тип развёртки                            : Прогрессивная
    Бит/(Пиксели*Кадры)                      : 0.389
    Размер потока                            : 10,0 Гбайт (95%)
    Библиотека кодирования                   : x264 core 125
    Настройки программы                      : cabac=1 / ref=4 / deblock=1:-3:-3 / analyse=0x3:0x133 / me=umh / subme=10 / psy=1 / psy_rd=0.80:0.00 / mixed_ref=1 / me_range=32 / chroma_me=1 / trellis=2 / 8x8dct=1 / cqm=0 / deadzone=21,11 / fast_pskip=0 / chroma_qp_offset=-2 / threads=6 / lookahead_threads=1 / sliced_threads=0 / nr=0 / decimate=0 / interlaced=0 / bluray_compat=0 / constrained_intra=0 / bframes=4 / b_pyramid=2 / b_adapt=2 / b_bias=0 / direct=3 / weightb=1 / open_gop=0 / weightp=2 / keyint=240 / keyint_min=24 / scenecut=40 / intra_refresh=0 / rc=crf / mbtree=0 / crf=18.0 / qcomp=0.80 / qpmin=10 / qpmax=69 / qpstep=4 / ip_ratio=1.40 / pb_ratio=1.30 / aq=1:0.80
    Язык                                     : English
    Дата кодирования                         : UTC 2013-01-14 20:10:23
    Дата пометки                             : UTC 2013-01-14 20:57:39
    Основные цвета                           : BT.709
    Характеристики трансфера                 : BT.709
    Коэффициенты матрицы                     : BT.709
    Видео #2
    Идентификатор                            : 10
    Формат                                   : JPEG
    Идентификатор кодека                     : jpeg
    Продолжительность                        : 1 ч. 14 м.
    Вид битрейта                             : Переменный
    Битрейт                                  : 1566 бит/сек
    Ширина                                   : 640 пикселей
    Высота                                   : 360 пикселей
    Соотношение сторон                       : 16:9
    Режим частоты кадров                     : Переменный
    Частота кадров                           : 0,004 кадр/сек
    Минимальная частота кадров               : 0,002 кадр/сек
    Максимальная частота кадров              : 0,007 кадр/сек
    Цветовое пространство                    : YUV
    Субдискретизация насыщенности            : 4:2:0
    Битовая глубина                          : 8 бит
    Метод сжатия                             : С потерями
    Бит/(Пиксели*Кадры)                      : 1.699
    Размер потока                            : 860 Кбайт (0%)
    Язык                                     : English
    Дата кодирования                         : UTC 2013-01-14 20:58:17
    Дата пометки                             : UTC 2013-01-14 20:58:18
    Аудио #1
    Идентификатор                            : 2
    Формат                                   : AAC
    Формат/Информация                        : Advanced Audio Codec
    Профиль формата                          : LC
    Идентификатор кодека                     : 40
    Продолжительность                        : 1 ч. 14 м.
    Вид битрейта                             : Переменный
    Битрейт                                  : 127 Кбит/сек
    Максимальный битрейт                     : 152 Кбит/сек
    Каналы                                   : 2 канала
    Расположение каналов                     : Front: L R
    Частота                                  : 48,0 КГц
    Метод сжатия                             : С потерями
    Задержка видео                           : 83 мс.
    Размер потока                            : 67,4 Мбайт (1%)
    Язык                                     : Russian
    Дата кодирования                         : UTC 2013-01-14 20:10:23
    Дата пометки                             : UTC 2013-01-14 20:23:04
    Аудио #2
    Идентификатор                            : 3
    Формат                                   : AAC
    Формат/Информация                        : Advanced Audio Codec
    Профиль формата                          : LC
    Идентификатор кодека                     : 40
    Продолжительность                        : 1 ч. 14 м.
    Вид битрейта                             : Переменный
    Битрейт                                  : 164 Кбит/сек
    Максимальный битрейт                     : 268 Кбит/сек
    Каналы                                   : 2 канала
    Расположение каналов                     : Front: L R
    Частота                                  : 48,0 КГц
    Метод сжатия                             : С потерями
    Задержка видео                           : 83 мс.
    Размер потока                            : 86,9 Мбайт (1%)
    Язык                                     : Russian
    Дата кодирования                         : UTC 2013-01-14 20:10:23
    Дата пометки                             : UTC 2013-01-14 20:32:57
    Аудио #3
    Идентификатор                            : 4
    Формат                                   : AAC
    Формат/Информация                        : Advanced Audio Codec
    Профиль формата                          : LC
    Идентификатор кодека                     : 40
    Продолжительность                        : 1 ч. 14 м.
    Вид битрейта                             : Переменный
    Битрейт                                  : 165 Кбит/сек
    Максимальный битрейт                     : 273 Кбит/сек
    Каналы                                   : 2 канала
    Расположение каналов                     : Front: L R
    Частота                                  : 48,0 КГц
    Метод сжатия                             : С потерями
    Задержка видео                           : 83 мс.
    Размер потока                            : 87,4 Мбайт (1%)
    Язык                                     : English
    Дата кодирования                         : UTC 2013-01-14 20:10:23
    Дата пометки                             : UTC 2013-01-14 20:38:19
    Аудио #4
    Идентификатор                            : 5
    Формат                                   : AC-3
    Формат/Информация                        : Audio Coding 3
    Расширение режима                        : CM (complete main)
    Параметр Endianness формата              : Big
    Идентификатор кодека                     : ac-3
    Продолжительность                        : 1 ч. 14 м.
    Вид битрейта                             : Постоянный
    Битрейт                                  : 640 Кбит/сек
    Каналы                                   : 6 каналов
    Расположение каналов                     : Front: L C R, Side: L R, LFE
    Частота                                  : 48,0 КГц
    Битовая глубина                          : 16 бит
    Метод сжатия                             : С потерями
    Задержка видео                           : 83 мс.
    Размер потока                            : 340 Мбайт (3%)
    Язык                                     : English
    Дата кодирования                         : UTC 2013-01-14 20:10:23
    Дата пометки                             : UTC 2013-01-14 20:43:33
    Текст #1
    Идентификатор                            : 6
    Формат                                   : Timed text
    Режим смешивания                         : sbtl
    Идентификатор кодека                     : tx3g
    Продолжительность                        : 1 ч. 12 м.
    Вид битрейта                             : Переменный
    Битрейт                                  : 2 бит/сек
    Задержка видео                           : 83 мс.
    Размер потока                            : 944 байт (0%)
    Язык                                     : Russian
    Дата кодирования                         : UTC 2013-01-14 20:10:23
    Дата пометки                             : UTC 2013-01-14 20:57:39
    Текст #2
    Идентификатор                            : 7
    Формат                                   : Timed text
    Режим смешивания                         : sbtl
    Идентификатор кодека                     : tx3g
    Продолжительность                        : 1 ч. 12 м.
    Вид битрейта                             : Переменный
    Битрейт                                  : 76 бит/сек
    Задержка видео                           : 83 мс.
    Размер потока                            : 40,1 Кбайт (0%)
    Язык                                     : Russian
    Дата кодирования                         : UTC 2013-01-14 20:10:23
    Дата пометки                             : UTC 2013-01-14 20:57:39
    Текст #3
    Идентификатор                            : 8
    Формат                                   : Timed text
    Режим смешивания                         : sbtl
    Идентификатор кодека                     : tx3g
    Продолжительность                        : 1 ч. 12 м.
    Вид битрейта                             : Переменный
    Битрейт                                  : 62 бит/сек
    Задержка видео                           : 83 мс.
    Размер потока                            : 32,7 Кбайт (0%)
    Язык                                     : English
    Дата кодирования                         : UTC 2013-01-14 20:10:23
    Дата пометки                             : UTC 2013-01-14 20:57:39
    Текст #4
    Идентификатор                            : 9
    Формат                                   : Apple text
    Идентификатор кодека                     : text
    Продолжительность                        : 1 ч. 14 м.
    Вид битрейта                             : Переменный
    Битрейт                                  : 1 бит/сек
    Задержка видео                           : 83 мс.
    Размер потока                            : 423 байт (0%)
    Язык                                     : English
    Дата кодирования                         : UTC 2013-01-14 20:57:39
    Дата пометки                             : UTC 2013-01-14 20:57:39
    Меню
    00:00:00.000                             : Chapter 1
    00:03:15.612                             : Chapter 2
    00:06:47.324                             : Chapter 3
    00:11:53.504                             : Chapter 4
    00:19:58.697                             : Chapter 5
    00:22:38.190                             : Chapter 6
    00:25:25.190                             : Chapter 7
    00:30:53.185                             : Chapter 8
    00:34:48.044                             : Chapter 9
    00:38:21.674                             : Chapter 10
    00:43:26.145                             : Chapter 11
    00:47:36.228                             : Chapter 12
    00:50:42.665                             : Chapter 13
    00:56:07.239                             : Chapter 14
    00:58:32.884                             : Chapter 15
    01:02:34.709                             : Chapter 16
    01:05:15.036                             : Chapter 17
    01:09:24.452                             : Chapter 18

    MediaInfo 720p Release

    Общее
    Полное имя                               : Z:\Music\iTunes\iTunes Media\Movies\The Great Mouse Detective\The Great Mouse Detective (HD).m4v
    Формат                                   : MPEG-4
    Идентификатор кодека                     : M4V
    Размер файла                             : 3,68 Гбайт
    Продолжительность                        : 1 ч. 14 м.
    Режим общего битрейта                    : Переменный
    Общий поток                              : 7097 Кбит/сек
    Название фильма                          : The Great Mouse Detective
    Исполнитель                              : Ron Clements, Burny Mattinson, Dave Michener & John Musker
    Жанр                                     : Kids & Family
    Дата записи                              : UTC 1986-07-02 07:00:00
    Дата кодирования                         : UTC 2013-01-14 19:41:47
    Дата пометки                             : UTC 2013-01-14 21:26:49
    Правообладатель                          : © Disney 2006
    Обложка                                  : Yes
    sonm                                     : Great Mouse Detective
    desc                                     : Оливия обращается за помощью к Базилю с Бэйкер-стрит. Она просит найти исчезнувшего отца. Базиль, его друг и соратник доктор Доусон, а также пес Тоби берутся за расследование. Следы ведут к профессору Ратигану, крупному преступнику, которому Базилю и придется противостоять.
    ldes                                     : Оливия обращается за помощью к Базилю с Бэйкер-стрит. Она просит найти исчезнувшего отца. Базиль, его друг и соратник доктор Доусон, а также пес Тоби берутся за расследование. Следы ведут к профессору Ратигану, крупному преступнику, которому Базилю и придется противостоять.
    hdvd                                     : 1
    stik                                     : 9
    rtng                                     : 0
    cnID                                     : 187499741
    xid                                      : Apple:vendor_id:1986-19177
    iTunEXTC                                 : au-tv|G|300|
    iTunMOVI                                 : <?xml version="1.0" encoding="UTF-8"?> / <!DOCTYPE plist PUBLIC "-//Apple//DTD PLIST 1.0//EN" "http://anonym.to/?http://www.apple.com/DTDs/PropertyList-1.0.dtd"> / <plist version="1.0"> / <dict> /  <key>cast</key> /  <array> /   <dict> /    <key>name</key> /    <string>Винсент Прайс</string> /   </dict> /   <dict> /    <key>name</key> /    <string>Бэрри Ингэм</string> /   </dict> /   <dict> /    <key>name</key> /    <string>Вэл Бэттин</string> /   </dict> /   <dict> /    <key>name</key> /    <string>Сюзанна Полащек</string> /   </dict> /   <dict> /    <key>name</key> /    <string>Кэнди Кандидо</string> /   </dict> /   <dict> /    <key>name</key> /    <string>Диана Чесни</string> /   </dict> /   <dict> /    <key>name</key> /    <string>Ив Бреннер</string> /   </dict> /   <dict> /    <key>name</key> /    <string>Алан Янг</string> /   </dict> /   <dict> /    <key>name</key> /    <string>Бэзил Рэтбоун</string> /   </dict> /   <dict> /    <key>name</key> /    <string>Лори Майн</string> /   </dict> /  </array> /  <key>directors</key> /  <array> /   <dict> /    <key>name</key> /    <string>Рон Клементс</string> /   </dict> /   <dict> /    <key>name</key> /    <string>Барни Мэттинсон</string> /   </dict> /   <dict> /    <key>name</key> /    <string>Дэвид Микенер</string> /   </dict> /  </array> /  <key>producers</key> /  <array> /   <dict> /    <key>name</key> /    <string>Барни Мэттинсон</string> /   </dict> /  </array> /  <key>screenwriters</key> /  <array> /   <dict> /    <key>name</key> /    <string>Питер Янг</string> /   </dict> /   <dict> /    <key>name</key> /    <string>Вэнс Джерри</string> /   </dict> /   <dict> /    <key>name</key> /    <string>Стив Хулетт</string> /   </dict> /  </array> /  <key>studio</key> /  <string>Walt Disney Pictures</string> / </dict> / </plist>
    Видео #1
    Идентификатор                            : 1
    Формат                                   : AVC
    Формат/Информация                        : Advanced Video Codec
    Профиль формата                          : High@L3.1
    Параметр CABAC формата                   : Нет
    Параметр ReFrames формата                : 3 кадра
    Идентификатор кодека                     : avc1
    Идентификатор кодека/Информация          : Advanced Video Coding
    Продолжительность                        : 1 ч. 14 м.
    Вид битрейта                             : Переменный
    Битрейт                                  : 6000 Кбит/сек
    Ширина                                   : 1280 пикселей
    Высота                                   : 720 пикселей
    Соотношение сторон                       : 16:9
    Режим частоты кадров                     : Переменный
    Частота кадров                           : 23,976 кадра/сек
    Минимальная частота кадров               : 23,974 кадра/сек
    Максимальная частота кадров              : 23,981 кадра/сек
    Цветовое пространство                    : YUV
    Субдискретизация насыщенности            : 4:2:0
    Битовая глубина                          : 8 бит
    Тип развёртки                            : Прогрессивная
    Бит/(Пиксели*Кадры)                      : 0.272
    Размер потока                            : 3,11 Гбайт (84%)
    Библиотека кодирования                   : x264 core 125
    Настройки программы                      : cabac=0 / ref=3 / deblock=1:-2:-2 / analyse=0x3:0x113 / me=umh / subme=9 / psy=1 / psy_rd=0.70:0.00 / mixed_ref=1 / me_range=32 / chroma_me=1 / trellis=0 / 8x8dct=1 / cqm=0 / deadzone=21,11 / fast_pskip=0 / chroma_qp_offset=-2 / threads=6 / lookahead_threads=1 / sliced_threads=0 / nr=0 / decimate=0 / interlaced=0 / bluray_compat=0 / constrained_intra=0 / bframes=3 / b_pyramid=0 / b_adapt=2 / b_bias=0 / direct=1 / weightb=0 / open_gop=0 / weightp=0 / keyint=240 / keyint_min=24 / scenecut=40 / intra_refresh=0 / rc_lookahead=40 / rc=2pass / mbtree=1 / bitrate=6000 / ratetol=1.0 / qcomp=0.80 / qpmin=10 / qpmax=51 / qpstep=4 / cplxblur=20.0 / qblur=0.5 / vbv_maxrate=9500 / vbv_bufsize=9500 / nal_hrd=none / ip_ratio=1.40 / aq=1:0.80
    Язык                                     : English
    Дата кодирования                         : UTC 2013-01-14 19:41:47
    Дата пометки                             : UTC 2013-01-14 19:47:09
    Основные цвета                           : BT.709
    Характеристики трансфера                 : BT.709
    Коэффициенты матрицы                     : BT.709
    Видео #2
    Идентификатор                            : 10
    Формат                                   : JPEG
    Идентификатор кодека                     : jpeg
    Продолжительность                        : 1 ч. 14 м.
    Вид битрейта                             : Переменный
    Битрейт                                  : 1513 бит/сек
    Ширина                                   : 640 пикселей
    Высота                                   : 360 пикселей
    Соотношение сторон                       : 16:9
    Режим частоты кадров                     : Переменный
    Частота кадров                           : 0,004 кадр/сек
    Минимальная частота кадров               : 0,002 кадр/сек
    Максимальная частота кадров              : 0,007 кадр/сек
    Цветовое пространство                    : YUV
    Субдискретизация насыщенности            : 4:2:0
    Битовая глубина                          : 8 бит
    Метод сжатия                             : С потерями
    Бит/(Пиксели*Кадры)                      : 1.642
    Размер потока                            : 831 Кбайт (0%)
    Язык                                     : English
    Дата кодирования                         : UTC 2013-01-14 19:48:47
    Дата пометки                             : UTC 2013-01-14 19:48:48
    Аудио #1
    Идентификатор                            : 2
    Формат                                   : AAC
    Формат/Информация                        : Advanced Audio Codec
    Профиль формата                          : LC
    Идентификатор кодека                     : 40
    Продолжительность                        : 1 ч. 14 м.
    Вид битрейта                             : Переменный
    Битрейт                                  : 127 Кбит/сек
    Максимальный битрейт                     : 152 Кбит/сек
    Каналы                                   : 2 канала
    Расположение каналов                     : Front: L R
    Частота                                  : 48,0 КГц
    Метод сжатия                             : С потерями
    Задержка видео                           : 42 мс.
    Размер потока                            : 67,4 Мбайт (2%)
    Язык                                     : Russian
    Дата кодирования                         : UTC 2013-01-14 19:41:47
    Дата пометки                             : UTC 2013-01-14 19:42:34
    Аудио #2
    Идентификатор                            : 3
    Формат                                   : AAC
    Формат/Информация                        : Advanced Audio Codec
    Профиль формата                          : LC
    Идентификатор кодека                     : 40
    Продолжительность                        : 1 ч. 14 м.
    Вид битрейта                             : Переменный
    Битрейт                                  : 164 Кбит/сек
    Максимальный битрейт                     : 268 Кбит/сек
    Каналы                                   : 2 канала
    Расположение каналов                     : Front: L R
    Частота                                  : 48,0 КГц
    Метод сжатия                             : С потерями
    Задержка видео                           : 42 мс.
    Размер потока                            : 86,9 Мбайт (2%)
    Язык                                     : Russian
    Дата кодирования                         : UTC 2013-01-14 19:41:47
    Дата пометки                             : UTC 2013-01-14 19:47:28
    Аудио #3
    Идентификатор                            : 4
    Формат                                   : AAC
    Формат/Информация                        : Advanced Audio Codec
    Профиль формата                          : LC
    Идентификатор кодека                     : 40
    Продолжительность                        : 1 ч. 14 м.
    Вид битрейта                             : Переменный
    Битрейт                                  : 165 Кбит/сек
    Максимальный битрейт                     : 273 Кбит/сек
    Каналы                                   : 2 канала
    Расположение каналов                     : Front: L R
    Частота                                  : 48,0 КГц
    Метод сжатия                             : С потерями
    Задержка видео                           : 42 мс.
    Размер потока                            : 87,4 Мбайт (2%)
    Язык                                     : English
    Дата кодирования                         : UTC 2013-01-14 19:41:47
    Дата пометки                             : UTC 2013-01-14 19:47:44
    Аудио #4
    Идентификатор                            : 5
    Формат                                   : AC-3
    Формат/Информация                        : Audio Coding 3
    Расширение режима                        : CM (complete main)
    Параметр Endianness формата              : Big
    Идентификатор кодека                     : ac-3
    Продолжительность                        : 1 ч. 14 м.
    Вид битрейта                             : Постоянный
    Битрейт                                  : 640 Кбит/сек
    Каналы                                   : 6 каналов
    Расположение каналов                     : Front: L C R, Side: L R, LFE
    Частота                                  : 48,0 КГц
    Битовая глубина                          : 16 бит
    Метод сжатия                             : С потерями
    Задержка видео                           : 42 мс.
    Размер потока                            : 340 Мбайт (9%)
    Язык                                     : English
    Дата кодирования                         : UTC 2013-01-14 19:41:47
    Дата пометки                             : UTC 2013-01-14 19:48:01
    Текст #1
    Идентификатор                            : 6
    Формат                                   : Timed text
    Режим смешивания                         : sbtl
    Идентификатор кодека                     : tx3g
    Продолжительность                        : 1 ч. 12 м.
    Вид битрейта                             : Переменный
    Битрейт                                  : 2 бит/сек
    Задержка видео                           : 42 мс.
    Размер потока                            : 967 байт (0%)
    Язык                                     : Russian
    Дата кодирования                         : UTC 2013-01-14 19:41:47
    Дата пометки                             : UTC 2013-01-14 19:48:01
    Текст #2
    Идентификатор                            : 7
    Формат                                   : Timed text
    Режим смешивания                         : sbtl
    Идентификатор кодека                     : tx3g
    Продолжительность                        : 1 ч. 12 м.
    Вид битрейта                             : Переменный
    Битрейт                                  : 77 бит/сек
    Задержка видео                           : 42 мс.
    Размер потока                            : 40,8 Кбайт (0%)
    Язык                                     : Russian
    Дата кодирования                         : UTC 2013-01-14 19:41:47
    Дата пометки                             : UTC 2013-01-14 19:48:01
    Текст #3
    Идентификатор                            : 8
    Формат                                   : Timed text
    Режим смешивания                         : sbtl
    Идентификатор кодека                     : tx3g
    Продолжительность                        : 1 ч. 12 м.
    Вид битрейта                             : Переменный
    Битрейт                                  : 64 бит/сек
    Задержка видео                           : 42 мс.
    Размер потока                            : 33,7 Кбайт (0%)
    Язык                                     : English
    Дата кодирования                         : UTC 2013-01-14 19:41:47
    Дата пометки                             : UTC 2013-01-14 19:48:01
    Текст #4
    Идентификатор                            : 9
    Формат                                   : Apple text
    Идентификатор кодека                     : text
    Продолжительность                        : 1 ч. 14 м.
    Вид битрейта                             : Переменный
    Битрейт                                  : 1 бит/сек
    Задержка видео                           : 42 мс.
    Размер потока                            : 423 байт (0%)
    Язык                                     : English
    Дата кодирования                         : UTC 2013-01-14 19:48:01
    Дата пометки                             : UTC 2013-01-14 19:48:01
    Меню
    00:00:00.000                             : Chapter 1
    00:03:15.612                             : Chapter 2
    00:06:47.324                             : Chapter 3
    00:11:53.504                             : Chapter 4
    00:19:58.697                             : Chapter 5
    00:22:38.190                             : Chapter 6
    00:25:25.190                             : Chapter 7
    00:30:53.185                             : Chapter 8
    00:34:48.044                             : Chapter 9
    00:38:21.674                             : Chapter 10
    00:43:26.145                             : Chapter 11
    00:47:36.228                             : Chapter 12
    00:50:42.665                             : Chapter 13
    00:56:07.239                             : Chapter 14
    00:58:32.884                             : Chapter 15
    01:02:34.709                             : Chapter 16
    01:05:15.036                             : Chapter 17
    01:09:24.452                             : Chapter 18

    x264 log 1080p Release

    x264 [info]: frame I:1010  Avg QP:15.78  size:220067  PSNR Mean Y:51.27 U:53.22 V:53.94 Avg:51.87 Global:51.10
    x264 [info]: frame P:29745 Avg QP:17.04  size:151969  PSNR Mean Y:47.40 U:50.18 V:50.68 Avg:48.17 Global:47.72
    x264 [info]: frame B:76090 Avg QP:19.10  size: 79279  PSNR Mean Y:46.06 U:48.83 V:49.42 Avg:46.83 Global:46.39
    x264 [info]: consecutive B-frames:  3.6%  5.4% 17.0% 40.6% 33.4%
    x264 [info]: mb I  I16..4: 10.7% 70.8% 18.4%
    x264 [info]: mb P  I16..4:  2.7% 36.9%  2.4%  P16..4: 26.8% 19.7%  8.2%  0.6%  0.1%    skip: 2.6%
    x264 [info]: mb B  I16..4:  0.9%  6.6%  0.3%  B16..8: 50.0% 16.6%  4.2%  direct:10.4%  skip:11.1%  L0:46.3% L1:42.1% BI:11.6%
    x264 [info]: 8x8 transform intra:86.0% inter:68.0%
    x264 [info]: direct mvs  spatial:100.0% temporal:0.0%
    x264 [info]: coded y,uvDC,uvAC intra: 91.8% 88.9% 71.5% inter: 61.6% 53.9% 21.6%
    x264 [info]: i16 v,h,dc,p: 25%  9% 53% 13%
    x264 [info]: i8 v,h,dc,ddl,ddr,vr,hd,vl,hu:  9%  9% 16%  9% 12% 10% 12% 10% 14%
    x264 [info]: i4 v,h,dc,ddl,ddr,vr,hd,vl,hu: 12% 11% 18%  7% 12% 10% 11%  7% 11%
    x264 [info]: i8c dc,h,v,p: 59% 18% 15%  9%
    x264 [info]: Weighted P-Frames: Y:11.8% UV:7.0%
    x264 [info]: ref P L0: 43.1% 10.7% 25.4% 16.6%  3.9%  0.2%
    x264 [info]: ref B L0: 79.4% 15.8%  4.8%
    x264 [info]: ref B L1: 89.7% 10.3%
    x264 [info]: SSIM Mean Y:0.9821549 (17.485db)
    x264 [info]: PSNR Mean Y:46.487 U:49.247 V:49.817 Avg:47.250 Global:46.748 kb/s:19343.12

    x264 log 720p Release

    x264 [info]: frame I:1343  Avg QP:17.44  size: 95049  PSNR Mean Y:46.97 U:48.94 V:49.50 Avg:47.57 Global:47.23
    x264 [info]: frame P:40751 Avg QP:18.94  size: 46285  PSNR Mean Y:44.91 U:48.04 V:48.30 Avg:45.73 Global:45.35
    x264 [info]: frame B:64751 Avg QP:19.62  size: 20435  PSNR Mean Y:44.23 U:47.49 V:47.90 Avg:45.07 Global:44.59
    x264 [info]: consecutive B-frames:  5.9% 29.4% 31.1% 33.5%
    x264 [info]: mb I  I16..4:  5.2% 64.7% 30.2%
    x264 [info]: mb P  I16..4:  1.3%  9.9%  3.5%  P16..4: 44.8% 27.7%  9.7%  0.0%  0.0%    skip: 3.1%
    x264 [info]: mb B  I16..4:  0.2%  2.7%  0.6%  B16..8: 41.4% 15.4%  2.2%  direct: 9.2%  skip:28.3%  L0:42.7% L1:47.2% BI:10.0%
    x264 [info]: 8x8 transform intra:69.5% inter:47.2%
    x264 [info]: coded y,uvDC,uvAC intra: 89.1% 81.0% 64.0% inter: 39.2% 32.9% 13.5%
    x264 [info]: i16 v,h,dc,p: 52% 13% 14% 21%
    x264 [info]: i8 v,h,dc,ddl,ddr,vr,hd,vl,hu:  6%  7%  7% 12% 17% 15% 15% 10% 11%
    x264 [info]: i4 v,h,dc,ddl,ddr,vr,hd,vl,hu:  9%  9%  5% 12% 18% 16% 14%  9%  9%
    x264 [info]: i8c dc,h,v,p: 57% 16% 18%  8%
    x264 [info]: ref P L0: 61.6% 22.8% 15.6%
    x264 [info]: ref B L0: 73.2% 26.8%
    x264 [info]: SSIM Mean Y:0.9749983 (16.020db)
    x264 [info]: PSNR Mean Y:44.524 U:47.718 V:48.068 Avg:45.353 Global:44.889 kb/s:5990.55

    Параметры кодирования видео 1080p Release

    /Applications/HandBrakeCLI -i "/Volumes/Arhiv_Disk/mouse.m2ts" -t 1 -o "/Users/yvu/Output/mouse (1080p HD).m4v"  -f mp4 -4  -O  -w 1920 -l 1080 --crop 0:0:0:0 --modulus 16 -e x264 -q 18 -a none  -x ref=4:bframes=4:b-adapt=2:direct=auto:me=umh:merange=32:subq=10:mbtree=0:analyse=all:trellis=2:deblock=-3,-3:qcomp=0.80:qpmin=10:qpmax=69:fast_pskip=0:no-dct-decimate=1:psy-rd=0.80,0.00:aq-strength=0.8:no-dct-decimate=1:psy-rd=0.80,0.00:ivbv-maxrate=25000:vbv-bufsize=25000 --verbose=1

    Параметры кодирования видео 720p Release

    Applications/HandBrakeCLI -i "/Volumes/Arhiv_Disk/mouse.m2ts" -t 1 -o "/Users/yvu/Output/mouse (HD).m4v" -f mp4 -4 -O -w 1280 -l 720 --crop 0:0:0:0  --modulus 16 -e x264 -b 6000 -2  -a none  -x cabac=0:ref=3:me=umh:b-pyramid=none:b-adapt=2:weightb=0:trellis=0:weightp=0:vbv-maxrate=9500:vbv-bufsize=9500:subq=9:merange=32:deblock=-2,-2:qcomp=0.80:qpmin=10:qpmax=51:fast_pskip=0:aq-strength=0.8:no-dct-decimate=1:psy-rd=0.70,0.00 --verbose=1

    Скриншоты 1080p Release

    Скриншоты 720p Release

    -

    Релиз подготовлен для просмотра на Apple TV, iPad, iPhone, iPod Touch.
    Для просмотра данного релиза на компьютере с ОС Windows рекомендуется использовать VLC media player-
    Скачать .torrent

    Скачать торрент-файл бесплатно и на максимальной скорости!

    Как скачивать? · Что такое торрент? · Рейтинг и ограничения

    !ВНИМАНИЕ!
    Сайт не распространяет и не хранит электронные версии произведений, а занимается лишь лишь предоставлением доступа к создаваемому пользователями каталогу ссылок на торрент-файлы, которые содержат только списки хеш-сумм, убедительная просьба с жалобами обращаться напрямую к пользователю. Файлы для обмена на трекере предоставлены пользователями сайта, и администрация не несёт ответственности за их содержание. Просьба не заливать файлы, защищенные авторскими правами, а также файлы нелегального содержания!


    _________________
    [Профиль] [ЛС]
    Показать сообщения:    
    Ответить на тему

    Текущее время: Сегодня, в 20:32

    Часовой пояс: GMT + 2



    Вы не можете начинать темы
    Вы не можете отвечать на сообщения
    Вы не можете редактировать свои сообщения
    Вы не можете удалять свои сообщения
    Вы не можете голосовать в опросах
    Вы не можете прикреплять файлы к сообщениям
    Вы не можете скачивать файлы