BitTorrentTracker PerecTracker.org
BitTorrentTracker PerecTracker.org
    
Регистрация  ·  Вход
 
 · 
Забыли пароль?

  • Спящий лагерь / Sleepaway Camp (Роберт Хилтзик / Robert Hiltzik) [1983, США, ужасы, триллер, слэшер, BDRemux 1080p] MVO (R5) + AVO (С.Кузнецов) + AVO (С.Визгунов) + Sub Eng + Original Eng

    Ответить на тему
     
    Автор Сообщение

    Flirldrerve

    Создавать темы 12-Фев-2016 00:19

           

    [Цитировать]

    -Спящий лагерь / Sleepaway Camp-Страна: США
    Жанр: ужасы, триллер, слэшер
    Год выпуска: 1983
    Продолжительность: 01:24:51-Перевод: Профессиональный (многоголосый закадровый) R5
    Перевод 2: Авторский (одноголосый закадровый) С.Кузнецов
    Перевод 3: Авторский (одноголосый закадровый) С.Визгунов
    Cубтитры: английские
    Оригинальная аудиодорожка: английский-Режиссер: Роберт Хилтзик / Robert Hiltzik
    В ролях: Фелисса Роуз, Джонатан Тирстен, Карен Филдс, Кристофер Коллет, Майк Келлин, Кэтрин Кэми, Пол ДеАнджело, Томас Е. ван Делл, Лорис Саллахиан, Джон Э. Данн-Описание: На озере тонет яхта с мужчиной и двумя его детьми на борту. Катающиеся рядом на катерах подростки не обратили внимание на разыгравшуюся трагедию. В результате их неосторожной езды мужчина и его сын погибают.
    Оставшаяся в живых девочка Анжела отправляется жить вместе со своей тётей Мартой и двоюродным братом Рикки. Только теперь девочка постоянно молчит, перенеся сильный травматический шок. Восемь лет спустя Анжела и Рикки отправляются в летний лагерь, на озеро, где погибли ее отец и брат. Необщительная Анжела становится предметом нападок и шуток со стороны подростков. Анжела не устраивает своим поведением даже взрослых. И вскоре люди, которые причиняли ей боль, начинают погибать от рук таинственного убийцы…-Сэмпл: https://yadi.sk/d/FBNL6od-oZunv-Тип релиза: BDRemux 1080p
    Контейнер: MKV
    Видео: MPEG-4 AVC Video / 29254 kbps / 1080p / 23.976 fps / 16:9 / High Profile 4.1
    Аудио: Russian / Dolby Digital Audio / 2.0 / 48 kHz / 192 kbps |Многоголосый закадровый, R5|
    Аудио 2: English / DTS-HD Master Audio / 2.0 / 48 kHz / 1838 kbps / 24-bit (DTS Core: 2.0 / 48 kHz / 1509 kbps / 24-bit) |Одноголосый закадровый, С.Кузнецов|
    Аудио 3: Russian / Dolby Digital Audio / 2.0 / 48 kHz / 192 kbps |Одноголосый закадровый, С.Визгунов|
    Аудио 4: English / DTS-HD Master Audio / 2.0 / 48 kHz / 1804 kbps / 24-bit (DTS Core: 2.0 / 48 kHz / 1509 kbps / 24-bit)
    Аудио 5: English / Dolby Digital Audio / 2.0 / 48 kHz / 192 kbps |Commentary|
    Формат субтитров: softsub (SRT)

    MI

    GeneralUnique ID : 216593770342067756133755115415250647631 (0xA2F2715BCBE167B28ADF72F124E3BA4F)Complete name : P:\Слэшеры\Спящий лагерь (1983. Sleepaway Camp).mkvFormat : MatroskaFormat version : Version 2File size : 19.8 GiBDuration : 1h 24mnOverall bit rate mode : VariableOverall bit rate : 33.5 MbpsMovie name : Release for RuTrackerEncoded date : UTC 2016-02-09 16:46:05Writing application : mkvmerge v4.9.1 ('Ich will') сборка от Jul 11 2011 23:53:15Writing library : libebml v1.2.1 + libmatroska v1.1.1
    VideoID : 1Format : AVCFormat/Info : Advanced Video CodecFormat profile : High@L4.1Format settings, CABAC : YesFormat settings, ReFrames : 3 framesFormat settings, GOP : M=3, N=12Codec ID : V_MPEG4/ISO/AVCDuration : 1h 24mnBit rate mode : VariableMaximum bit rate : 34.5 MbpsWidth : 1 920 pixelsHeight : 1 080 pixelsDisplay aspect ratio : 16:9Frame rate mode : ConstantFrame rate : 23.976 fpsStandard : NTSCColor space : YUVChroma subsampling : 4:2:0Bit depth : 8 bitsScan type : ProgressiveLanguage : EnglishDefault : YesForced : NoColor primaries : BT.709Transfer characteristics : BT.709Matrix coefficients : BT.709
    Audio #1ID : 2Format : AC-3Format/Info : Audio Coding 3Mode extension : CM (complete main)Format settings, Endianness : BigCodec ID : A_AC3Duration : 1h 24mnBit rate mode : ConstantBit rate : 192 KbpsChannel(s) : 2 channelsChannel positions : Front: L RSampling rate : 48.0 KHzBit depth : 16 bitsCompression mode : LossyStream size : 117 MiB (1%)Title : MVO [R5]Language : RussianDefault : YesForced : No
    Audio #2ID : 3Format : DTSFormat/Info : Digital Theater SystemsFormat profile : MA / CoreMode : 16Format settings, Endianness : BigCodec ID : A_DTSDuration : 1h 24mnBit rate mode : VariableBit rate : Unknown / 1 509 KbpsChannel(s) : 2 channelsChannel positions : Front: L RSampling rate : 48.0 KHzBit depth : 24 bitsCompression mode : Lossless / LossyTitle : Cергей КузнецовLanguage : RussianDefault : NoForced : No
    Audio #3ID : 4Format : AC-3Format/Info : Audio Coding 3Mode extension : CM (complete main)Format settings, Endianness : BigCodec ID : A_AC3Duration : 1h 24mnBit rate mode : ConstantBit rate : 192 KbpsChannel(s) : 2 channelsChannel positions : Front: L RSampling rate : 48.0 KHzBit depth : 16 bitsCompression mode : LossyStream size : 117 MiB (1%)Title : Сергей ВизгуновLanguage : RussianDefault : NoForced : No
    Audio #4ID : 5Format : DTSFormat/Info : Digital Theater SystemsFormat profile : MA / CoreMode : 16Format settings, Endianness : BigCodec ID : A_DTSDuration : 1h 24mnBit rate mode : VariableBit rate : Unknown / 1 509 KbpsChannel(s) : 2 channelsChannel positions : Front: L RSampling rate : 48.0 KHzBit depth : 24 bitsCompression mode : Lossless / LossyLanguage : EnglishDefault : NoForced : No
    Audio #5ID : 6Format : AC-3Format/Info : Audio Coding 3Mode extension : CM (complete main)Format settings, Endianness : BigCodec ID : A_AC3Duration : 1h 24mnBit rate mode : ConstantBit rate : 192 KbpsChannel(s) : 2 channelsChannel positions : Front: L RSampling rate : 48.0 KHzBit depth : 16 bitsCompression mode : LossyStream size : 117 MiB (1%)Title : CommentaryLanguage : EnglishDefault : NoForced : No
    TextID : 7Format : UTF-8Codec ID : S_TEXT/UTF8Codec ID/Info : UTF-8 Plain TextLanguage : EnglishDefault : NoForced : No
    Menu00:00:00.000 : en:00:00:00.00000:06:24.175 : en:00:06:24.17500:13:42.947 : en:00:13:42.94700:22:37.356 : en:00:22:37.35600:26:49.357 : en:00:26:49.35700:37:43.552 : en:00:37:43.55200:42:35.886 : en:00:42:35.88600:51:23.288 : en:00:51:23.28800:57:31.698 : en:00:57:31.69801:04:27.864 : en:01:04:27.86401:09:44.513 : en:01:09:44.51301:18:31.707 : en:01:18:31.707
    Скриншоты

    Зеркало


    Цитата:
    Цитата:

    • Релиз . Спасибо Spiellberg!
    • Дорожка №2 получена путем наложения чистого голоса на L,R каналы оригинального DTS-HD MA.
    • Сохранены оригинальные чаптеры как на Blu-ray.
    Скачать .torrent

    Скачать торрент-файл бесплатно и на максимальной скорости!

    Как скачивать? · Что такое торрент? · Рейтинг и ограничения

    !ВНИМАНИЕ!
    Сайт не распространяет и не хранит электронные версии произведений, а занимается лишь лишь предоставлением доступа к создаваемому пользователями каталогу ссылок на торрент-файлы, которые содержат только списки хеш-сумм, убедительная просьба с жалобами обращаться напрямую к пользователю. Файлы для обмена на трекере предоставлены пользователями сайта, и администрация не несёт ответственности за их содержание. Просьба не заливать файлы, защищенные авторскими правами, а также файлы нелегального содержания!


    _________________
    [Профиль] [ЛС]
    Показать сообщения:    
    Ответить на тему

    Текущее время: Сегодня, в 10:13

    Часовой пояс: GMT + 2



    Вы не можете начинать темы
    Вы не можете отвечать на сообщения
    Вы не можете редактировать свои сообщения
    Вы не можете удалять свои сообщения
    Вы не можете голосовать в опросах
    Вы не можете прикреплять файлы к сообщениям
    Вы не можете скачивать файлы