BitTorrentTracker PerecTracker.org
BitTorrentTracker PerecTracker.org
    
Регистрация  ·  Вход
 
 · 
Забыли пароль?

  • Спящий лагерь 3: Безлюдная территория / Sleepaway Camp III: Teenage Wasteland (Майкл А. Симпсон / Michael A. Simpson) [1989, США, ужасы, триллер, слэшер, BDRemux 1080p] MVO (R5) + AVO (С.Кузнецов) + AVO (С.Визгунов) + Sub Eng + Original Eng

    Ответить на тему
     
    Автор Сообщение

    Flirldrerve

    Создавать темы 12-Фев-2016 00:19

           

    [Цитировать]

    -Спящий лагерь 3: Безлюдная территория / Sleepaway Camp III: Teenage Wasteland-Страна: США
    Жанр: ужасы, триллер, слэшер
    Год выпуска: 1989
    Продолжительность: 01:19:27-Перевод: Профессиональный (многоголосый закадровый) R5
    Перевод 2: Авторский (одноголосый закадровый) С.Кузнецов
    Перевод 3: Авторский (одноголосый закадровый) С.Визгунов
    Cубтитры: английские
    Оригинальная аудиодорожка: английский-Режиссер: Майкл А. Симпсон / Michael A. Simpson
    В ролях: Памела Спрингстин, Трэйси Гриффит, Майкл Дж. Поллард, Марк Оливер, Хэйнс Брук, Сандра Дорси, Дэрил Вилчер, Ким Уолл, Кайл Холман, Клифф Брэнд-Описание: Летний лагерь Роллинг Хиллз переименовали, потому что у жителей всей округи возникали только кошмарные ассоциации при упоминании этого названия. Теперь лагерь получил вывеску «Новые горизонты».
    Анджела Бэйкер, убивавшая подростков в предыдущих двух частях фильма тоже «переименовалась«: теперь ее зовут Мария Накастро. Потому что именно так звали девочку, которую Анджела убила, чтобы отправиться в лагерь «Новые горизонты», где ее кровавая натура сможет развернуться во всю...-Сэмпл: 1) https://yadi.sk/d/3LpiLMHgoaDmH 2) https://yadi.sk/d/gr8J6ze9odt5H-Тип релиза: BDRemux 1080p
    Контейнер: MKV
    Видео: MPEG-4 AVC Video / 29254 kbps / 1080p / 23.976 fps / 16:9 / High Profile 4.1
    Аудио: Russian / Dolby Digital Audio / 2.0 / 48 kHz / 192 kbps |Многоголосый закадровый, R5|
    Аудио 2: English / DTS-HD Master Audio / 2.0 / 48 kHz / 2095 kbps / 24-bit (DTS Core: 2.0 / 48 kHz / 1509 kbps / 24-bit) |Одноголосый закадровый, С.Кузнецов|
    Аудио 3: Russian / Dolby Digital Audio / 2.0 / 48 kHz / 192 kbps |Одноголосый закадровый, С.Визгунов|
    Аудио 4: English / DTS-HD Master Audio / 2.0 / 48 kHz / 2080 kbps / 24-bit (DTS Core: 2.0 / 48 kHz / 1509 kbps / 24-bit)
    Аудио 5: English / Dolby Digital Audio / 2.0 / 48 kHz / 192 kbps |Commentary|
    Формат субтитров: softsub (SRT)

    MI

    GeneralUnique ID : 215311935806931809232273389860925935502 (0xA1FB92095E6406EBB9C725D636EF0F8E)Complete name : P:\Слэшеры\Спящий лагерь 3. Безлюдная территория (1989. Sleepaway Camp III. Teenage Wasteland).mkvFormat : MatroskaFormat version : Version 2File size : 21.9 GiBDuration : 1h 19mnOverall bit rate mode : VariableOverall bit rate : 39.6 MbpsMovie name : Release for RuTrackerEncoded date : UTC 2016-02-09 18:35:26Writing application : mkvmerge v4.9.1 ('Ich will') сборка от Jul 11 2011 23:53:15Writing library : libebml v1.2.1 + libmatroska v1.1.1
    VideoID : 1Format : AVCFormat/Info : Advanced Video CodecFormat profile : High@L4.1Format settings, CABAC : YesFormat settings, ReFrames : 4 framesCodec ID : V_MPEG4/ISO/AVCDuration : 1h 19mnBit rate mode : ConstantNominal bit rate : 36.0 MbpsWidth : 1 920 pixelsHeight : 1 080 pixelsDisplay aspect ratio : 16:9Frame rate mode : ConstantFrame rate : 23.976 fpsColor space : YUVChroma subsampling : 4:2:0Bit depth : 8 bitsScan type : ProgressiveBits/(Pixel*Frame) : 0.724Language : EnglishDefault : YesForced : No
    Audio #1ID : 2Format : AC-3Format/Info : Audio Coding 3Mode extension : CM (complete main)Format settings, Endianness : BigCodec ID : A_AC3Duration : 1h 19mnBit rate mode : ConstantBit rate : 192 KbpsChannel(s) : 2 channelsChannel positions : Front: L RSampling rate : 48.0 KHzBit depth : 16 bitsCompression mode : LossyStream size : 109 MiB (0%)Title : MVO [R5]Language : RussianDefault : YesForced : No
    Audio #2ID : 3Format : DTSFormat/Info : Digital Theater SystemsFormat profile : MA / CoreMode : 16Format settings, Endianness : BigCodec ID : A_DTSDuration : 1h 19mnBit rate mode : VariableBit rate : Unknown / 1 509 KbpsChannel(s) : 2 channelsChannel positions : Front: L RSampling rate : 48.0 KHzBit depth : 24 bitsCompression mode : Lossless / LossyTitle : Cергей КузнецовLanguage : RussianDefault : NoForced : No
    Audio #3ID : 4Format : AC-3Format/Info : Audio Coding 3Mode extension : CM (complete main)Format settings, Endianness : BigCodec ID : A_AC3Duration : 1h 19mnBit rate mode : ConstantBit rate : 192 KbpsChannel(s) : 2 channelsChannel positions : Front: L RSampling rate : 48.0 KHzBit depth : 16 bitsCompression mode : LossyStream size : 109 MiB (0%)Title : Сергей ВизгуновLanguage : RussianDefault : NoForced : No
    Audio #4ID : 5Format : DTSFormat/Info : Digital Theater SystemsFormat profile : MA / CoreMode : 16Format settings, Endianness : BigCodec ID : A_DTSDuration : 1h 19mnBit rate mode : VariableBit rate : Unknown / 1 509 KbpsChannel(s) : 2 channelsChannel positions : Front: L RSampling rate : 48.0 KHzBit depth : 24 bitsCompression mode : Lossless / LossyLanguage : EnglishDefault : NoForced : No
    Audio #5ID : 6Format : AC-3Format/Info : Audio Coding 3Mode extension : CM (complete main)Format settings, Endianness : BigCodec ID : A_AC3Duration : 1h 19mnBit rate mode : ConstantBit rate : 448 KbpsChannel(s) : 2 channelsChannel positions : Front: L RSampling rate : 48.0 KHzBit depth : 16 bitsCompression mode : LossyStream size : 255 MiB (1%)Title : CommentaryLanguage : EnglishDefault : NoForced : No
    TextID : 7Format : UTF-8Codec ID : S_TEXT/UTF8Codec ID/Info : UTF-8 Plain TextLanguage : EnglishDefault : NoForced : No
    Menu00:00:00.000 : en:00:00:00.00000:04:50.916 : en:00:04:50.91600:10:19.244 : en:00:10:19.24400:16:09.594 : en:00:16:09.59400:22:47.366 : en:00:22:47.36600:28:10.314 : en:00:28:10.31400:34:01.665 : en:00:34:01.66500:41:47.130 : en:00:41:47.13000:47:45.863 : en:00:47:45.86300:55:16.939 : en:00:55:16.93901:02:03.720 : en:01:02:03.72001:09:35.797 : en:01:09:35.797
    Скриншоты

    Зеркало


    Цитата:
    Цитата:

    • Релиз . Спасибо Spiellberg!
    • Дорожка №2 получена путем наложения чистого голоса на L,R каналы оригинального DTS-HD MA.
    • Сохранены оригинальные чаптеры как на Blu-ray.
    Скачать .torrent

    Скачать торрент-файл бесплатно и на максимальной скорости!

    Как скачивать? · Что такое торрент? · Рейтинг и ограничения

    !ВНИМАНИЕ!
    Сайт не распространяет и не хранит электронные версии произведений, а занимается лишь лишь предоставлением доступа к создаваемому пользователями каталогу ссылок на торрент-файлы, которые содержат только списки хеш-сумм, убедительная просьба с жалобами обращаться напрямую к пользователю. Файлы для обмена на трекере предоставлены пользователями сайта, и администрация не несёт ответственности за их содержание. Просьба не заливать файлы, защищенные авторскими правами, а также файлы нелегального содержания!


    _________________
    [Профиль] [ЛС]
    Показать сообщения:    
    Ответить на тему

    Текущее время: Сегодня, в 08:33

    Часовой пояс: GMT + 2



    Вы не можете начинать темы
    Вы не можете отвечать на сообщения
    Вы не можете редактировать свои сообщения
    Вы не можете удалять свои сообщения
    Вы не можете голосовать в опросах
    Вы не можете прикреплять файлы к сообщениям
    Вы не можете скачивать файлы