BitTorrentTracker PerecTracker.org
BitTorrentTracker PerecTracker.org
    
Регистрация  ·  Вход
 
 · 
Забыли пароль?

  • Подарок / The Gift (Джоэл Эдгертон / Joel Edgerton) [2015, Австралия, США, триллер, детектив, BDRip 720p] Dub (НТВ+) + Sub Rus, Eng + Original Eng

    Ответить на тему
     
    Автор Сообщение

    Flirldrerve

    Создавать темы 12-Фев-2016 00:19

           

    [Цитировать]

    -Подарок / The Gift
    «Грехи прошлого становятся твоим настоящим»--Страна: Австралия, США
    Жанр: Триллер, Детектив
    Год выпуска: 2015
    Продолжительность: 01:48:11-Перевод: Профессиональный (дублированный) НТВ+-Cубтитры: Русские, Английские
    Оригинальная аудиодорожка: Английская-Режиссер: Джоэл Эдгертон / Joel Edgerton-В ролях: Джейсон Бейтман, Ребекка Холл, Джоэл Эдгертон, Эллисон Толман, Тим Гриффин, Бизи Филиппс, Адам Лазарр-Уайт, Бо Напп, Уенделл Пирс, Мирра Фолкс-Описание: В жизнь Саймона врывается человек из далекого прошлого — его бывший одноклассник Гордо. Человек дружелюбный, немного неуклюжий, но с большими странностями. До встречи с одноклассником Саймон и его молодая супруга Робин считали свою жизнь идеальной, однако Гордо вносит в жизнь молодоженов свои коррективы.---Тип релиза: BDRip 720p
    Контейнер: MKV-Видео: MPEG-4 AVC, 1280x534 (1.85:1), 23.976 fps, ~5118 kbps, 0.312 bit/pixel
    Аудио 1: 48 kHz, AC3 Dolby Digital, 3/2 (L,C,R,l,r) + LFE ch, ~384 kbps avg
    Аудио 2: 48 kHz, DTS, 3/2 (L,C,R,l,r) + LFE ch, ~1509 kbps avg-

    MediaInfo

    Complete name : D:\РАЗДАЧИ\The Gift (2015) 720p BDRip.mkv
    Format : Matroska
    Format version : Version 2
    File size : 5.41 GiB
    Duration : 1h 48mn
    Overall bit rate : 7 154 Kbps
    Movie name : The Gift (2015) 720p BDRip
    Encoded date : UTC 2016-02-10 18:49:35
    Writing application : mkvmerge v3.0.0 ('Hang up your Hang-Ups') built on Dec 12 2009 15:20:35
    Writing library : libebml v0.7.9 + libmatroska v0.8.1
    Cover : Yes
    Video
    ID : 1
    Format : AVC
    Format/Info : Advanced Video Codec
    Format profile : High@L4.1
    Format settings, CABAC : Yes
    Format settings, ReFrames : 12 frames
    Codec ID : V_MPEG4/ISO/AVC
    Duration : 1h 48mn
    Bit rate : 5 118 Kbps
    Width : 1 280 pixels
    Height : 534 pixels
    Display aspect ratio : 2.40:1
    Frame rate mode : Constant
    Frame rate : 23.976 fps
    Color space : YUV
    Chroma subsampling : 4:2:0
    Bit depth : 8 bits
    Scan type : Progressive
    Bits/(Pixel*Frame) : 0.312
    Stream size : 3.87 GiB (72%)
    Writing library : x264 core 142 r2431+42 c69a006 tMod [8-bit@4:2:0 X86_64]
    Encoding settings : cabac=1 / ref=12 / deblock=1:-3:-3 / analyse=0x3:0x113 / me=umh / subme=11 / psy=1 / fade_compensate=0.00 / psy_rd=0.90:0.00 / mixed_ref=1 / me_range=32 / chroma_me=1 / trellis=2 / 8x8dct=1 / cqm=0 / deadzone=21,11 / fast_pskip=0 / chroma_qp_offset=-2 / threads=18 / lookahead_threads=3 / sliced_threads=0 / nr=0 / decimate=0 / interlaced=0 / bluray_compat=0 / constrained_intra=0 / fgo=0 / bframes=8 / b_pyramid=2 / b_adapt=2 / b_bias=0 / direct=3 / weightb=1 / open_gop=0 / weightp=2 / keyint=240 / keyint_min=24 / scenecut=40 / intra_refresh=0 / rc_lookahead=60 / rc=crf / mbtree=0 / crf=17.8000 / qcomp=0.70 / qpmin=0:0:0 / qpmax=69:69:69 / qpstep=4 / vbv_maxrate=38000 / vbv_bufsize=38000 / crf_max=0.0 / nal_hrd=none / filler=0 / ip_ratio=1.20 / pb_ratio=1.20 / aq=3:0.80 / aq-sensitivity=10.00 / aq-factor=1.00:1.00:1.00 / aq2=0 / aq3=0
    Language : English
    Default : No
    Forced : No
    Audio #1
    ID : 2
    Format : AC-3
    Format/Info : Audio Coding 3
    Mode extension : CM (complete main)
    Format settings, Endianness : Big
    Codec ID : A_AC3
    Duration : 1h 48mn
    Bit rate mode : Constant
    Bit rate : 384 Kbps
    Channel(s) : 6 channels
    Channel positions : Front: L C R, Side: L R, LFE
    Sampling rate : 48.0 KHz
    Bit depth : 16 bits
    Compression mode : Lossy
    Stream size : 297 MiB (5%)
    Title : НТВ+
    Language : Russian
    Default : Yes
    Forced : No
    Audio #2
    ID : 3
    Format : DTS
    Format/Info : Digital Theater Systems
    Mode : 16
    Format settings, Endianness : Big
    Codec ID : A_DTS
    Duration : 1h 48mn
    Bit rate mode : Constant
    Bit rate : 1 509 Kbps
    Channel(s) : 6 channels
    Channel positions : Front: L C R, Side: L R, LFE
    Sampling rate : 48.0 KHz
    Bit depth : 24 bits
    Compression mode : Lossy
    Stream size : 1.14 GiB (21%)
    Title : Original
    Language : English
    Default : No
    Forced : No
    Text #1
    ID : 4
    Format : UTF-8
    Codec ID : S_TEXT/UTF8
    Codec ID/Info : UTF-8 Plain Text
    Title : Russian
    Language : Russian
    Default : Yes
    Forced : No
    Text #2
    ID : 5
    Format : UTF-8
    Codec ID : S_TEXT/UTF8
    Codec ID/Info : UTF-8 Plain Text
    Title : English
    Language : English
    Default : No
    Forced : No
    Menu
    00:00:00.000 : en:00:00:00.000
    00:05:55.355 : en:00:05:55.355
    00:09:36.993 : en:00:09:36.993
    00:18:31.027 : en:00:18:31.027
    00:23:41.670 : en:00:23:41.670
    00:28:26.079 : en:00:28:26.079
    00:34:30.568 : en:00:34:30.568
    00:39:48.428 : en:00:39:48.428
    00:44:23.995 : en:00:44:23.995
    00:49:57.203 : en:00:49:57.203
    00:55:54.309 : en:00:55:54.309
    01:01:51.291 : en:01:01:51.291
    01:05:24.212 : en:01:05:24.212
    01:11:21.736 : en:01:11:21.736
    01:17:12.503 : en:01:17:12.503
    01:21:44.274 : en:01:21:44.274
    01:26:29.059 : en:01:26:29.059
    01:30:06.276 : en:01:30:06.276
    01:37:55.036 : en:01:37:55.036
    01:42:56.629 : en:01:42:56.629

    Скриншоты

    Скачать .torrent

    Скачать торрент-файл бесплатно и на максимальной скорости!

    Как скачивать? · Что такое торрент? · Рейтинг и ограничения

    !ВНИМАНИЕ!
    Сайт не распространяет и не хранит электронные версии произведений, а занимается лишь лишь предоставлением доступа к создаваемому пользователями каталогу ссылок на торрент-файлы, которые содержат только списки хеш-сумм, убедительная просьба с жалобами обращаться напрямую к пользователю. Файлы для обмена на трекере предоставлены пользователями сайта, и администрация не несёт ответственности за их содержание. Просьба не заливать файлы, защищенные авторскими правами, а также файлы нелегального содержания!


    _________________
    [Профиль] [ЛС]
    Показать сообщения:    
    Ответить на тему

    Текущее время: Сегодня, в 10:51

    Часовой пояс: GMT + 2



    Вы не можете начинать темы
    Вы не можете отвечать на сообщения
    Вы не можете редактировать свои сообщения
    Вы не можете удалять свои сообщения
    Вы не можете голосовать в опросах
    Вы не можете прикреплять файлы к сообщениям
    Вы не можете скачивать файлы