BitTorrentTracker PerecTracker.org
BitTorrentTracker PerecTracker.org
    
Регистрация  ·  Вход
 
 · 
Забыли пароль?

  • Всем спокойной ночи / Спокойной ночи всем / To All a Good Night (Дэвид Хесс / David Hess) [1980, США, слэшер, BDRip 720p] VO + Original Eng

    Ответить на тему
     
    Автор Сообщение

    Flirldrerve

    Создавать темы 12-Фев-2016 00:19

           

    [Цитировать]

    Всем спокойной ночи / Спокойной ночи всем / To All a Good Night / Goodnight - Die Nacht, als Knecht 'Blutbrecht' kam /Feliz Nochebuena
    Страна: США
    Студия: Four Features Partners
    Жанр: слэшер
    Год выпуска: 1980
    Продолжительность: 1:27:20
    Перевод: Одноголосый закадровый Переводчик не опознан
    Cубтитры: нет
    Оригинальная аудиодорожка: английский
    Режиссер: Дэвид Хесс / David Hess
    В ролях: Дженнифер Раньон, Форрест Свенсон, Линда Джентил, Уилльям Лацэр
    Описание: Во время рождественских каникул в Кэлвинском колледже для девочек происходит страшный несчастный случай. В результате посвящения в члены студенческого братства девушка выпадает из окна второго этажа и разбивается насмерть. Два года спустя все студенты университетского городка разъезжаются на рождественские праздники по домам. Но несколько девушек решают остаться и устроить вечеринку со знакомыми парнями. Девушки подсыпают снотворное в молоко коменданта общежития миссис Дженсен и ждут, пока она отправится спать. Тем временем подруга миссис Дженсен по имени Ранзони постоянно повторяет, что должна скоро умереть. Вскоре прибывают и парни. Естественно, веселая и безмятежная вечеринка нарушается появлением маньяка-убийцы в костюме Санта-Клауса. Трупы подростков начинают скапливаться с неимоверной быстротой. Утром возле дома обнаруживают труп садовника. Полиция обыскивает близлежащую к общежитию местность. Но ей еще предстоит найти всех мертвецов, которые появились этой ночью в университетском городке…В картине очень много трупов: целых четырнадцать. Спецэффектами занимался Марк Шострем, а оператором был Билл Годси («Хлыст», 1974; «Туманный», 1975; «Холодная река», 1982).
    Доп. информация: Из собственной коллекции.
    Сэмпл: http://sendfile.su/1202948
    Тип релиза: BDRip 720p
    Контейнер: MKV
    Видео: 1280х696 (16:9), 23,976 (24000/1001), AVC 5655 Кбит/сек 0.265 bits/pixel
    Аудио: Russian, 48,0 КГц AC3, 2 ch, 192 Kbps
    Аудио 2: English, 48.0 KHz, DTS, 2 ch, 1509 Kbps

    MediaInfo

    Общее
    Уникальный идентификатор : 172314885113970625252420548086568255318 (0x81A2A3C410A2CFD28F3B4A48ABEEFF56)
    Полное имя : D:\To All a Good Night_1980.mkv
    Формат : Matroska
    Версия формата : Version 2
    Размер файла : 4,49 Гбайт
    Продолжительность : 1 ч. 27 м.
    Общий поток : 7355 Кбит/сек
    Дата кодирования : UTC 2016-02-09 20:30:19
    Программа кодирования : mkvmerge v4.0.0 ('The Stars were mine') сборка от Jun 6 2010 16:18:42
    Библиотека кодирования : libebml v1.0.0 + libmatroska v1.0.0
    Видео
    Идентификатор : 1
    Формат : AVC
    Формат/Информация : Advanced Video Codec
    Профиль формата : High@L4.1
    Параметр CABAC формата : Да
    Параметр ReFrames формата : 5 кадров
    Идентификатор кодека : V_MPEG4/ISO/AVC
    Продолжительность : 1 ч. 27 м.
    Битрейт : 5655 Кбит/сек
    Ширина : 1280 пикселей
    Высота : 696 пикселей
    Соотношение сторон : 1,85:1
    Режим частоты кадров : Постоянный
    Частота кадров : 23,976 (24000/1001) кадра/сек
    Цветовое пространство : YUV
    Субдискретизация насыщенности : 4:2:0
    Битовая глубина : 8 бит
    Тип развёртки : Прогрессивная
    Бит/(Пиксели*Кадры) : 0.265
    Размер потока : 3,36 Гбайт (75%)
    Библиотека кодирования : x264 core 142 r2479 dd79a61
    Настройки программы : cabac=1 / ref=5 / deblock=1:0:0 / analyse=0x3:0x133 / me=umh / subme=8 / psy=1 / psy_rd=1.00:0.00 / mixed_ref=1 / me_range=16 / chroma_me=1 / trellis=1 / 8x8dct=1 / cqm=0 / deadzone=21,11 / fast_pskip=0 / chroma_qp_offset=-2 / threads=12 / lookahead_threads=2 / sliced_threads=0 / nr=0 / decimate=1 / interlaced=0 / bluray_compat=0 / constrained_intra=0 / bframes=3 / b_pyramid=2 / b_adapt=1 / b_bias=0 / direct=1 / weightb=1 / open_gop=0 / weightp=2 / keyint=250 / keyint_min=23 / scenecut=40 / intra_refresh=0 / rc_lookahead=40 / rc=2pass / mbtree=1 / bitrate=5655 / ratetol=1.0 / qcomp=0.60 / qpmin=0 / qpmax=69 / qpstep=4 / cplxblur=20.0 / qblur=0.5 / ip_ratio=1.40 / aq=1:1.00
    Язык : English
    Default : Нет
    Forced : Нет
    Statistics Tags Issue : mkvmerge v7.1.0 ('Good Love') 64bit built on Jul 27 2014 13:06:55 2014-11-29 05:56:19 / mkvmerge v4.0.0 ('The Stars were mine') сборка от Jun 6 2010 16:18:42 2016-02-09 20:30:19
    FromStats_BitRate : 5651827
    FromStats_Duration : 01:27:19.234000000
    FromStats_FrameCount : 125616
    FromStats_StreamSize : 3701405591
    Аудио #1
    Идентификатор : 2
    Формат : AC-3
    Формат/Информация : Audio Coding 3
    Расширение режима : CM (complete main)
    Параметр Endianness формата : Big
    Идентификатор кодека : A_AC3
    Продолжительность : 1 ч. 27 м.
    Вид битрейта : Постоянный
    Битрейт : 192 Кбит/сек
    Каналы : 2 канала
    Расположение каналов : Front: L R
    Частота : 48,0 КГц
    Частота кадров : 31,250 кадров/сек (1536 spf)
    Метод сжатия : С потерями
    Размер потока : 120 Мбайт (3%)
    Default : Да
    Forced : Нет
    Аудио #2
    Идентификатор : 3
    Формат : DTS
    Формат/Информация : Digital Theater Systems
    Режим : 16
    Параметр Endianness формата : Big
    Идентификатор кодека : A_DTS
    Продолжительность : 1 ч. 27 м.
    Вид битрейта : Постоянный
    Битрейт : 1509 Кбит/сек
    Каналы : 2 канала
    Расположение каналов : Front: L R
    Частота : 48,0 КГц
    Частота кадров : 93,750 кадра/сек (512 spf)
    Битовая глубина : 16 бит
    Метод сжатия : С потерями
    Задержка видео : 11 мс.
    Размер потока : 943 Мбайт (21%)
    Язык : English
    Default : Нет
    Forced : Нет
    Statistics Tags Issue : mkvmerge v7.1.0 ('Good Love') 64bit built on Jul 27 2014 13:06:55 2014-11-29 05:56:19 / mkvmerge v4.0.0 ('The Stars were mine') сборка от Jun 6 2010 16:18:42 2016-02-09 20:30:19
    FromStats_BitRate : 1509000
    FromStats_Duration : 01:27:20.000000000
    FromStats_FrameCount : 491250
    FromStats_StreamSize

    Постеры

    Скриншоты

    Скачать .torrent

    Скачать торрент-файл бесплатно и на максимальной скорости!

    Как скачивать? · Что такое торрент? · Рейтинг и ограничения

    !ВНИМАНИЕ!
    Сайт не распространяет и не хранит электронные версии произведений, а занимается лишь лишь предоставлением доступа к создаваемому пользователями каталогу ссылок на торрент-файлы, которые содержат только списки хеш-сумм, убедительная просьба с жалобами обращаться напрямую к пользователю. Файлы для обмена на трекере предоставлены пользователями сайта, и администрация не несёт ответственности за их содержание. Просьба не заливать файлы, защищенные авторскими правами, а также файлы нелегального содержания!


    _________________
    [Профиль] [ЛС]
    Показать сообщения:    
    Ответить на тему

    Текущее время: Сегодня, в 14:47

    Часовой пояс: GMT + 2



    Вы не можете начинать темы
    Вы не можете отвечать на сообщения
    Вы не можете редактировать свои сообщения
    Вы не можете удалять свои сообщения
    Вы не можете голосовать в опросах
    Вы не можете прикреплять файлы к сообщениям
    Вы не можете скачивать файлы