BitTorrentTracker PerecTracker.org
BitTorrentTracker PerecTracker.org
    
Регистрация  ·  Вход
 
 · 
Забыли пароль?

  • Дублёр (Евгений Абызов) [2012, Россия, комедия, BDRip HD (720p), SD (480p)] Original (rus)

    Ответить на тему
     
    Автор Сообщение

    Flirldrerve

    Создавать темы 12-Фев-2016 00:19

           

    [Цитировать]

    Дублёр
    5.687 / 10
    -Год выпуска: 2012
    Страна: Россия
    Жанр: комедия
    Продолжительность: 83 мин.
    Перевод: Не требуется
    Оригинальная аудиодорожка: Есть
    Cубтитры: Нет
    Режиссёр: Евгений Абызов
    Сценарий: Сергей Мохначев, Павел Карнаухов
    Продюсер: Георгий Малков, Сарик Андреасян, Гевонд Андреасян
    Оператор: Сергей Дышук, Антон Зенкович
    Композитор: Дарин Сысоев, Арташес Андреасян
    Художник: Давид Дадунашвили, Анна Андреева, Оксана Шевченко
    Монтаж: Кирилл Козлов
    В ролях: Александр Ревва, Кристина Асмус, Дмитрий Хрусталев, Людмила Артемьева, Татьяна Орлова, Ксения Буравская, Варвара Малкова, Александр Сазонов, Анна Назарова, Юлия Гришина
    Бюджет: 60 000 000 руб.
    Сборы в мире: $6 552 275
    Сборы в России: $6 552 275
    Мировая премьера: 10 января 2013
    Премьера (РФ): 10 января 2013, Каропрокат
    Релиз на Blu-Ray: 4 февраля 2013, Новый Диск
    Релиз на DVD: 4 февраля 2013, Новый Диск
    Описание: Главный герой нашей истории - успешный актер, звезда шоу-бизнеса Игорь Успенский. Его жизнь - сплошные съемки, концерты, презентации, корпоративы, интервью и светские тусовки. Он вынужден "крутиться" день и ночь, у него нет выходных и праздников. А его очаровательная жена и прекрасная дочка видят его в лучшем случае поздно ночью, когда он приезжает домой, чтобы поспать хотя бы пару часов. Но все труды не проходят даром. Игорь очень популярен и однажды его кандидатуру выдвигают на премию "Человек года" - теперь ему нужно еще больше времени, чтобы победить главного конкурента - певца Михаила Стасова, главные хиты которого свели с ума всех женщин России...
    В подмосковном городе живет Сева, человек, чрезвычайно похожий на Игоря Успенского. Он работает массажистом в салоне красоты, живет вдвоем с собакой по имени Сергей Валерьевич, абсолютно доволен своей жизнью и не признает сходства со звездой. Однажды директор салона убеждает Севу сняться в рекламном ролике, где САМ Игорь Успенский (конечно, изображаемый Севой) делает массаж клиентам салона. Ролик оказывается в интернете - так о своем двойнике узнает Успенский. Понимая, что времени ни на что не хватает, Успенский решает не подавать в суд на салон, а предложить Севе стать своим Дублером. Тому лишь нужно посетить несколько корпоративов и светских тусовок в образе Игоря Успенского. Сева принимает предложение и... попадает в незнакомый мир шоу-бизнеса, где его ждут невероятные приключения...-Качество исходника: Blu-Ray 1080p (HDClub)
    Качество: BDRip
    Тип: 480p 720p
    Контейнер: m4v
    Видео: 640x386 анаморф 852x386 at 24.000 fps, MPEG-4 AVC, ~1500 kbps avg
    Видео: 1280x580 at 24.000 fps, MPEG-4 AVC, ~4500 kbps avg
    Аудио#1: Russian: 48 kHz, ААС, 2/0 (L,R), ~128.00 / 160.00 kbps avg
    Аудио#2: Russian: 48 kHz, AC3, 3/2 (L,C,R,l,r) + LFE ch, ~640.00 kbps avg-

    iTunes Meta Tags for country ru

    Sort Name: Дублёр
    XID: Apple:vendor-id:2012-679550
    contentID: 679550
    Screenwriters: Сергей Мохначев, Павел Карнаухов
    Producers: Георгий Малков, Сарик Андреасян, Гевонд Андреасян
    Director: Евгений Абызов
    Cast: Александр Ревва, Кристина Асмус, Дмитрий Хрусталев, Людмила Артемьева, Татьяна Орлова, Ксения Буравская, Варвара Малкова, Александр Сазонов, Анна Назарова, Юлия Гришина
    Rating: 16+
    Long Description: Главный герой нашей истории - успешный актер, звезда шоу-бизнеса Игорь Успенский. Его жизнь - сплошные съемки, концерты, презентации, корпоративы, интервью и светские тусовки. Он вынужден «крутиться» день и ночь, у него нет выходных и праздников. А его очаровательная жена и прекрасная дочка видят его в лучшем случае поздно ночью, когда он приезжает домой, чтобы поспать хотя бы пару часов. Но все труды не проходят даром. Игорь очень популярен и однажды его кандидатуру выдвигают на премию «Человек года» - теперь ему нужно еще больше времени, чтобы победить главного конкурента - певца Михаила Стасова, главные хиты которого свели с ума всех женщин России…
    В подмосковном городе живет Сева, человек, чрезвычайно похожий на Игоря Успенского. Он работает массажистом в салоне красоты, живет вдвоем с собакой по имени Сергей Валерьевич, абсолютно доволен своей жизнью и не признает сходства со звездой. Однажды директор салона убеждает Севу сняться в рекламном ролике, где САМ Игорь Успенский (конечно, изображаемый Севой) делает массаж клиентам салона. Ролик оказывается в интернете - так о своем двойнике узнает Успенский. Понимая, что времени ни на что не хватает, Успенский решает не подавать в суд на салон, а предложить Севе стать своим Дублером. Тому лишь нужно посетить несколько корпоративов и светских тусовок в образе Игоря Успенского. Сева принимает предложение и… попадает в незнакомый мир шоу-бизнеса, где его ждут невероятные приключения…
    Description: Главный герой нашей истории - успешный актер, звезда шоу-бизнеса Игорь Успенский. Его жизнь - сплошные съемки, концерты, презентации, корпоративы, интервью и светские тусовки. Он вынужден «крутиться» день и ночь, у него нет выходных и праздников.
    Release Date: 2013-01-10T07:00:00Z
    Genre: Comedy
    Artist: Евгений Абызов
    Name: Дублёр

    MediaInfo 480p Release

    Общее
    Полное имя : Дублёр.m4v
    Формат : MPEG-4
    Идентификатор кодека : M4V  (M4V /M4A /mp42/isom)
    Размер файла : 978 Мбайт
    Продолжительность : 1 ч. 23 м.
    Режим общего битрейта : Переменный
    Общий поток : 1637 Кбит/сек
    Название фильма : Дублёр
    Исполнитель : Евгений Абызов
    Режиссёр : Евгений Абызов
    Исполнитель : Александр Ревва / Кристина Асмус / Дмитрий Хрусталев / Людмила Артемьева / Татьяна Орлова / Ксения Буравская / Варвара Малкова / Александр Сазонов / Анна Назарова / Юлия Гришина
    Сценарист : Сергей Мохначев / Павел Карнаухов
    Продюсер : Георгий Малков / Сарик Андреасян / Гевонд Андреасян
    Жанр : Comedy
    Тип содержимого : Short Film
    Описание : Главный герой нашей истории - успешный актер, звезда шоу-бизнеса Игорь Успенский. Его жизнь - сплошные съемки, концерты, презентации, корпоративы, интервью и светские тусовки. Он вынужден «крутиться» день и ночь, у него нет выходных и праздников.
    Дата записи : UTC 2013-01-10 07:00:00
    Дата кодирования : UTC 2013-07-22 19:42:40
    Дата пометки : UTC 2013-07-29 09:30:32
    Обложка : Yes
    Оценка : None
    Title/Sort : Дублёр
    LongDescription : Главный герой нашей истории - успешный актер, звезда шоу-бизнеса Игорь Успенский. Его жизнь - сплошные съемки, концерты, презентации, корпоративы, интервью и светские тусовки. Он вынужден «крутиться» день и ночь, у него нет выходных и праздников. А его очаровательная жена и прекрасная дочка видят его в лучшем случае поздно ночью, когда он приезжает домой, чтобы поспать хотя бы пару часов. Но все труды не проходят даром. Игорь очень популярен и однажды его кандидатуру выдвигают на премию «Человек года» - теперь ему нужно еще больше времени, чтобы победить главного конкурента - певца Михаила Стасова, главные хиты которого свели с ума всех женщин России… / В подмосковном городе живет Сева, человек, чрезвычайно похожий на Игоря Успенского. Он работает массажистом в салоне красоты, живет вдвоем с собакой по имени Сергей Валерьевич, абсолютно доволен своей жизнью и не признает сходства со звездой. Однажды директор салона убеждает Севу сняться в рекламном ролике, где САМ Игорь Успенский (конечно, изображаемый Севой) делает массаж клиентам салона. Ролик оказывается в интернете - так о своем двойнике узнает Успенский. Понимая, что времени ни на что не хватает, Успенский решает не подавать в суд на салон, а предложить Севе стать своим Дублером. Тому лишь нужно посетить несколько корпоративов и светских тусовок в образе Игоря Успенского. Сева принимает предложение и… попадает в незнакомый мир шоу-бизнеса, где его ждут невероятные приключения…
    AppleStoreCatalogID : 679550
    Vendor : Apple:vendor-id:2012-679550
    ContentRating : ru-movie|16+|375|
    Видео #1
    Идентификатор : 1
    Формат : AVC
    Формат/Информация : Advanced Video Codec
    Профиль формата : Baseline@L3
    Параметр CABAC формата : Нет
    Параметр ReFrames формата : 2 кадра
    Идентификатор кодека : avc1
    Идентификатор кодека/Информация : Advanced Video Coding
    Продолжительность : 1 ч. 23 м.
    Битрейт : 1500 Кбит/сек
    Ширина : 640 пикселей
    Высота : 386 пикселей
    Соотношение сторон : 2,2:1
    Режим частоты кадров : Постоянный
    Частота кадров : 24,000 кадра/сек
    Цветовое пространство : YUV
    Субдискретизация насыщенности : 4:2:0
    Битовая глубина : 8 бит
    Тип развёртки : Прогрессивная
    Бит/(Пиксели*Кадры) : 0.253
    Размер потока : 897 Мбайт (92%)
    Заголовок : Main Program
    Библиотека кодирования : x264 core 125
    Настройки программы : cabac=0 / ref=2 / deblock=1:1:-3 / analyse=0x1:0x111 / me=umh / subme=6 / psy=1 / psy_rd=1.00:0.00 / mixed_ref=1 / me_range=16 / chroma_me=1 / trellis=0 / 8x8dct=0 / cqm=0 / deadzone=21,11 / fast_pskip=0 / chroma_qp_offset=-2 / threads=6 / lookahead_threads=1 / sliced_threads=0 / nr=0 / decimate=1 / interlaced=0 / bluray_compat=0 / constrained_intra=0 / bframes=0 / weightp=0 / keyint=240 / keyint_min=24 / scenecut=40 / intra_refresh=0 / rc_lookahead=40 / rc=2pass / mbtree=1 / bitrate=1500 / ratetol=1.0 / qcomp=0.60 / qpmin=3 / qpmax=69 / qpstep=4 / cplxblur=20.0 / qblur=0.5 / vbv_maxrate=5000 / vbv_bufsize=5000 / nal_hrd=none / ip_ratio=1.40 / aq=1:1.00
    Язык : Russian
    Дата кодирования : UTC 2013-07-22 19:42:40
    Дата пометки : UTC 2013-07-22 19:43:15
    Цветовой диапазон : Limited
    Основные цвета : BT.709
    Характеристики трансфера : BT.709
    Коэффициенты матрицы : BT.709
    Menus : 3,4
    Видео #2
    Идентификатор : 4
    Формат : JPEG
    Идентификатор кодека : jpeg
    Продолжительность : 1 ч. 23 м.
    Вид битрейта : Переменный
    Битрейт : 738 бит/сек
    Ширина : 640 пикселей
    Высота : 289 пикселей
    Соотношение сторон : 2,2:1
    Режим частоты кадров : Переменный
    Частота кадров : 0,002 кадр/сек
    Минимальная частота кадров : 0,002 кадр/сек
    Максимальная частота кадров : 0,005 кадр/сек
    Цветовое пространство : YUV
    Субдискретизация насыщенности : 4:2:0
    Битовая глубина : 8 бит
    Метод сжатия : С потерями
    Бит/(Пиксели*Кадры) : 1.995
    Размер потока : 540 Кбайт (0%)
    Заголовок : Chapter Images
    Язык : Russian
    Default : Нет
    Дата кодирования : UTC 2013-07-22 19:43:18
    Дата пометки : UTC 2013-07-22 19:43:18
    Menu For : 1
    Аудио
    Идентификатор : 2
    Формат : AAC
    Формат/Информация : Advanced Audio Codec
    Профиль формата : LC
    Идентификатор кодека : 40
    Продолжительность : 1 ч. 23 м.
    Вид битрейта : Переменный
    Битрейт : 132 Кбит/сек
    Максимальный битрейт : 221 Кбит/сек
    Каналы : 2 канала
    Расположение каналов : Front: L R
    Частота : 48,0 КГц
    Частота кадров : 46,875 кадров/сек (1024 spf)
    Метод сжатия : С потерями
    Размер потока : 78,7 Мбайт (8%)
    Заголовок : Russian Stereo
    Язык : Russian
    Default : Да
    Alternate group : 1
    Дата кодирования : UTC 2013-07-22 19:42:40
    Дата пометки : UTC 2013-07-22 19:42:46
    Menus : 3
    Меню #1
    00:00:00.000 : Глава 1
    00:06:00.375 : Глава 2
    00:13:55.833 : Глава 3
    00:22:29.875 : Глава 4
    00:27:09.667 : Глава 5
    00:36:01.042 : Глава 6
    00:42:06.667 : Глава 7
    00:50:57.042 : Глава 8
    01:00:46.458 : Глава 9
    01:05:38.167 : Глава 10
    01:10:03.708 : Глава 11
    01:20:13.292 : Глава 12
    Меню #2
    Идентификатор : 3
    Идентификатор кодека : text
    Продолжительность : 1 ч. 23 м.
    Заголовок : Chapter Titles
    Язык : Russian
    Дата кодирования : UTC 2013-07-22 19:43:15
    Дата пометки : UTC 2013-07-22 19:43:15
    Menu For : 2,1
    00:00:00.000 : Глава 1
    00:06:00.375 : Глава 2
    00:13:55.833 : Глава 3
    00:22:29.875 : Глава 4
    00:27:09.667 : Глава 5
    00:36:01.042 : Глава 6
    00:42:06.667 : Глава 7
    00:50:57.042 : Глава 8
    01:00:46.458 : Глава 9
    01:05:38.167 : Глава 10
    01:10:03.708 : Глава 11
    01:20:13.292 : Глава 12
    Вид битрейта : VBR

    MediaInfo 720p Release

    Общее
    Полное имя : Дублёр (HD).m4v
    Формат : MPEG-4
    Идентификатор кодека : M4V  (M4V /M4A /mp42/isom)
    Размер файла : 3,10 Гбайт
    Продолжительность : 1 ч. 23 м.
    Режим общего битрейта : Переменный
    Общий поток : 5309 Кбит/сек
    Название фильма : Дублёр
    Исполнитель : Евгений Абызов
    Режиссёр : Евгений Абызов
    Исполнитель : Александр Ревва / Кристина Асмус / Дмитрий Хрусталев / Людмила Артемьева / Татьяна Орлова / Ксения Буравская / Варвара Малкова / Александр Сазонов / Анна Назарова / Юлия Гришина
    Сценарист : Сергей Мохначев / Павел Карнаухов
    Продюсер : Георгий Малков / Сарик Андреасян / Гевонд Андреасян
    Жанр : Comedy
    Тип содержимого : Short Film
    Описание : Главный герой нашей истории - успешный актер, звезда шоу-бизнеса Игорь Успенский. Его жизнь - сплошные съемки, концерты, презентации, корпоративы, интервью и светские тусовки. Он вынужден «крутиться» день и ночь, у него нет выходных и праздников.
    Дата записи : UTC 2013-01-10 07:00:00
    Дата кодирования : UTC 2013-07-22 19:10:57
    Дата пометки : UTC 2013-07-29 09:27:51
    Обложка : Yes
    Оценка : None
    Title/Sort : Дублёр
    LongDescription : Главный герой нашей истории - успешный актер, звезда шоу-бизнеса Игорь Успенский. Его жизнь - сплошные съемки, концерты, презентации, корпоративы, интервью и светские тусовки. Он вынужден «крутиться» день и ночь, у него нет выходных и праздников. А его очаровательная жена и прекрасная дочка видят его в лучшем случае поздно ночью, когда он приезжает домой, чтобы поспать хотя бы пару часов. Но все труды не проходят даром. Игорь очень популярен и однажды его кандидатуру выдвигают на премию «Человек года» - теперь ему нужно еще больше времени, чтобы победить главного конкурента - певца Михаила Стасова, главные хиты которого свели с ума всех женщин России… / В подмосковном городе живет Сева, человек, чрезвычайно похожий на Игоря Успенского. Он работает массажистом в салоне красоты, живет вдвоем с собакой по имени Сергей Валерьевич, абсолютно доволен своей жизнью и не признает сходства со звездой. Однажды директор салона убеждает Севу сняться в рекламном ролике, где САМ Игорь Успенский (конечно, изображаемый Севой) делает массаж клиентам салона. Ролик оказывается в интернете - так о своем двойнике узнает Успенский. Понимая, что времени ни на что не хватает, Успенский решает не подавать в суд на салон, а предложить Севе стать своим Дублером. Тому лишь нужно посетить несколько корпоративов и светских тусовок в образе Игоря Успенского. Сева принимает предложение и… попадает в незнакомый мир шоу-бизнеса, где его ждут невероятные приключения…
    HDVideo : Yes
    AppleStoreCatalogID : 679550
    Vendor : Apple:vendor-id:2012-679550
    ContentRating : ru-movie|16+|375|
    Видео #1
    Идентификатор : 1
    Формат : AVC
    Формат/Информация : Advanced Video Codec
    Профиль формата : High@L3.1
    Параметр CABAC формата : Нет
    Параметр ReFrames формата : 3 кадра
    Идентификатор кодека : avc1
    Идентификатор кодека/Информация : Advanced Video Coding
    Продолжительность : 1 ч. 23 м.
    Битрейт : 4500 Кбит/сек
    Ширина : 1280 пикселей
    Высота : 580 пикселей
    Соотношение сторон : 2,2:1
    Режим частоты кадров : Постоянный
    Частота кадров : 24,000 кадра/сек
    Цветовое пространство : YUV
    Субдискретизация насыщенности : 4:2:0
    Битовая глубина : 8 бит
    Тип развёртки : Прогрессивная
    Бит/(Пиксели*Кадры) : 0.253
    Размер потока : 2,63 Гбайт (85%)
    Заголовок : Main Program
    Библиотека кодирования : x264 core 125
    Настройки программы : cabac=0 / ref=3 / deblock=1:1:-3 / analyse=0x3:0x113 / me=umh / subme=9 / psy=1 / psy_rd=0.90:0.00 / mixed_ref=1 / me_range=32 / chroma_me=1 / trellis=0 / 8x8dct=1 / cqm=0 / deadzone=21,11 / fast_pskip=1 / chroma_qp_offset=-2 / threads=6 / lookahead_threads=1 / sliced_threads=0 / nr=0 / decimate=1 / interlaced=0 / bluray_compat=0 / constrained_intra=0 / bframes=3 / b_pyramid=0 / b_adapt=2 / b_bias=0 / direct=1 / weightb=0 / open_gop=0 / weightp=0 / keyint=240 / keyint_min=24 / scenecut=40 / intra_refresh=0 / rc_lookahead=40 / rc=2pass / mbtree=1 / bitrate=4500 / ratetol=1.0 / qcomp=0.80 / qpmin=0 / qpmax=69 / qpstep=4 / cplxblur=20.0 / qblur=0.5 / vbv_maxrate=9500 / vbv_bufsize=9500 / nal_hrd=none / ip_ratio=1.40 / aq=1:1.00
    Язык : Russian
    Дата кодирования : UTC 2013-07-22 19:10:57
    Дата пометки : UTC 2013-07-22 19:13:30
    Цветовой диапазон : Limited
    Основные цвета : BT.709
    Характеристики трансфера : BT.709
    Коэффициенты матрицы : BT.709
    Menus : 4,5
    Видео #2
    Идентификатор : 5
    Формат : JPEG
    Идентификатор кодека : jpeg
    Продолжительность : 1 ч. 23 м.
    Вид битрейта : Переменный
    Битрейт : 754 бит/сек
    Ширина : 640 пикселей
    Высота : 290 пикселей
    Соотношение сторон : 2,2:1
    Режим частоты кадров : Переменный
    Частота кадров : 0,002 кадр/сек
    Минимальная частота кадров : 0,002 кадр/сек
    Максимальная частота кадров : 0,005 кадр/сек
    Цветовое пространство : YUV
    Субдискретизация насыщенности : 4:2:0
    Битовая глубина : 8 бит
    Метод сжатия : С потерями
    Бит/(Пиксели*Кадры) : 2.031
    Размер потока : 552 Кбайт (0%)
    Заголовок : Chapter Images
    Язык : Russian
    Default : Нет
    Дата кодирования : UTC 2013-07-22 19:14:03
    Дата пометки : UTC 2013-07-22 19:14:03
    Menu For : 1
    Аудио #1
    Идентификатор : 2
    Формат : AAC
    Формат/Информация : Advanced Audio Codec
    Профиль формата : LC
    Идентификатор кодека : 40
    Продолжительность : 1 ч. 23 м.
    Вид битрейта : Переменный
    Битрейт : 165 Кбит/сек
    Максимальный битрейт : 272 Кбит/сек
    Каналы : 2 канала
    Расположение каналов : Front: L R
    Частота : 48,0 КГц
    Частота кадров : 46,875 кадров/сек (1024 spf)
    Метод сжатия : С потерями
    Размер потока : 98,4 Мбайт (3%)
    Заголовок : Russian Stereo
    Язык : Russian
    Default : Да
    Alternate group : 1
    Дата кодирования : UTC 2013-07-22 19:10:57
    Дата пометки : UTC 2013-07-22 19:11:05
    Fallback From : 3
    Menus : 4
    Аудио #2
    Идентификатор : 3
    Формат : AC-3
    Формат/Информация : Audio Coding 3
    Расширение режима : CM (complete main)
    Параметр Endianness формата : Big
    Идентификатор кодека : ac-3
    Продолжительность : 1 ч. 23 м.
    Вид битрейта : Постоянный
    Битрейт : 640 Кбит/сек
    Каналы : 6 каналов
    Расположение каналов : Front: L C R, Side: L R, LFE
    Частота : 48,0 КГц
    Частота кадров : 31,250 кадров/сек (1536 spf)
    Битовая глубина : 16 бит
    Метод сжатия : С потерями
    Размер потока : 383 Мбайт (12%)
    Заголовок : Russian DD 5.1
    Язык : Russian
    Default : Inherited From: 2
    Alternate group : 1
    Дата кодирования : UTC 2013-07-22 19:10:57
    Дата пометки : UTC 2013-07-22 19:13:47
    Fallback To : 2
    Меню #1
    00:00:00.000 : Глава 1
    00:06:00.375 : Глава 2
    00:13:55.833 : Глава 3
    00:22:29.875 : Глава 4
    00:27:09.667 : Глава 5
    00:36:01.042 : Глава 6
    00:42:06.667 : Глава 7
    00:50:57.042 : Глава 8
    01:00:46.458 : Глава 9
    01:05:38.167 : Глава 10
    01:10:03.708 : Глава 11
    01:20:13.292 : Глава 12
    Меню #2
    Идентификатор : 4
    Идентификатор кодека : text
    Продолжительность : 1 ч. 23 м.
    Заголовок : Chapter Titles
    Язык : Russian
    Дата кодирования : UTC 2013-07-22 19:13:47
    Дата пометки : UTC 2013-07-22 19:13:47
    Menu For : 2,1
    00:00:00.000 : Глава 1
    00:06:00.375 : Глава 2
    00:13:55.833 : Глава 3
    00:22:29.875 : Глава 4
    00:27:09.667 : Глава 5
    00:36:01.042 : Глава 6
    00:42:06.667 : Глава 7
    00:50:57.042 : Глава 8
    01:00:46.458 : Глава 9
    01:05:38.167 : Глава 10
    01:10:03.708 : Глава 11
    01:20:13.292 : Глава 12
    Вид битрейта : VBR

    Скриншоты 480p Release

    Скриншоты 720p Release

    -

    Релиз подготовлен для просмотра на Apple TV, iPad, iPhone, iPod Touch.
    Для просмотра данного релиза на компьютере с ОС Windows рекомендуется использовать VLC media player
    Скачать .torrent

    Скачать торрент-файл бесплатно и на максимальной скорости!

    Как скачивать? · Что такое торрент? · Рейтинг и ограничения

    !ВНИМАНИЕ!
    Сайт не распространяет и не хранит электронные версии произведений, а занимается лишь лишь предоставлением доступа к создаваемому пользователями каталогу ссылок на торрент-файлы, которые содержат только списки хеш-сумм, убедительная просьба с жалобами обращаться напрямую к пользователю. Файлы для обмена на трекере предоставлены пользователями сайта, и администрация не несёт ответственности за их содержание. Просьба не заливать файлы, защищенные авторскими правами, а также файлы нелегального содержания!


    _________________
    [Профиль] [ЛС]
    Показать сообщения:    
    Ответить на тему

    Текущее время: Сегодня, в 14:39

    Часовой пояс: GMT + 2



    Вы не можете начинать темы
    Вы не можете отвечать на сообщения
    Вы не можете редактировать свои сообщения
    Вы не можете удалять свои сообщения
    Вы не можете голосовать в опросах
    Вы не можете прикреплять файлы к сообщениям
    Вы не можете скачивать файлы