BitTorrentTracker PerecTracker.org
BitTorrentTracker PerecTracker.org
    
Регистрация  ·  Вход
 
 · 
Забыли пароль?

  • В сердце моря / In the heart of the sea (Рон Ховард / Ron Howard) [2015, США, драма, приключения, триллер, DVDScreener] Dub + Original Eng

    Ответить на тему
     
    Автор Сообщение

    rechyn

    Создавать темы 12-Фев-2016 00:19

           

    [Цитировать]

    В сердце моря / In the heart of the sea
    Страна: США
    Жанр: драма, приключения, триллер
    Год выпуска: 2015
    Продолжительность: 02:01:38
    Перевод: Профессиональный (дублированный)
    Cубтитры: нет
    Оригинальная аудиодорожка: английский
    Режиссер: Рон Ховард/Ron Howard
    В ролях: Крис Хемсворт, Бенджамин Уокер, Киллиан Мёрфи, Брендан Глисон, Бен Уишоу, Мишель Фэйрли, Том Холланд, Пол Андерсон, Фрэнк Диллэйн, Джозеф Моул
    Описание: В 1819 году американский корабль «Эссекс» с командой из двух десятков человек на борту отправился из порта в штате Массачусетс на китобойный промысел. Осенью 1820-го успешная на протяжении полутора лет охота была прервана атакой гигантского кашалота на судно, в результате чего морякам пришлось пересесть в шлюпки. В течение трех с лишним месяцев они боролись за выживание посреди океана…
    Доп. информация: 2 дорожки, русская вероятно записывали в кинотеатре (как в трубе), оригинальная довольно чистая
    Сэмпл: http://multi-up.com/1088665
    Качество видео: DVDScreener
    Формат видео: AVI
    Видео: MPEG-1 (XVID), 720x400, 16:9, 29,970 (30000/1001) кадров/сек, 1812 Кбит/сек
    Аудио: 48 kHz,AC3, 320kb/s, stereo, rus
    Аудио 2: 48 kHz,AC3, 256kb/s, stereo, eng

    MediaInfo

    Формат : AVI
    Формат/Информация : Audio Video Interleave
    Профиль формата : OpenDML
    Размер файла : 2,05 Гбайт
    Продолжительность : 2 ч. 1 м.
    Общий поток : 2411 Кбит/сек
    Программа кодирования : VirtualDubMod 1.5.10.3 | www.virtualdub-fr.org || (build 2550/release)
    Библиотека кодирования : VirtualDubMod build 2550/release
    Видео
    Идентификатор : 0
    Формат : MPEG-4 Visual
    Профиль формата : Advanced Simple@L5
    Параметр BVOP формата : 2
    Параметр QPel формата : Да
    Параметр GMC формата : Без точки перехода
    Параметр матрицы формата : Default (H.263)
    Режим смешивания : Сжатый битовый поток
    Идентификатор кодека : XVID
    Идентификатор кодека/Подсказка : XviD
    Продолжительность : 2 ч. 1 м.
    Битрейт : 1812 Кбит/сек
    Ширина : 720 пикселей
    Высота : 400 пикселей
    Соотношение сторон : 16:9
    Частота кадров : 29,970 (30000/1001) кадров/сек
    Цветовое пространство : YUV
    Субдискретизация насыщенности : 4:2:0
    Битовая глубина : 8 бит
    Тип развёртки : Прогрессивная
    Метод сжатия : С потерями
    Бит/(Пиксели*Кадры) : 0.210
    Размер потока : 1,54 Гбайт (75%)
    Библиотека кодирования : XviD 1.2.1 (UTC 2008-12-04)
    Аудио #1
    Идентификатор : 1
    Формат : AC-3
    Формат/Информация : Audio Coding 3
    Расширение режима : CM (complete main)
    Параметр Endianness формата : Big
    Идентификатор кодека : 2000
    Продолжительность : 2 ч. 1 м.
    Вид битрейта : Постоянный
    Битрейт : 320 Кбит/сек
    Каналы : 2 канала
    Расположение каналов : Front: L R
    Частота : 48,0 КГц
    Частота кадров : 31,250 кадров/сек (1536 spf)
    Метод сжатия : С потерями
    Размер потока : 278 Мбайт (13%)
    Выравнивание : Разделение по промежуткам
    Продолжительность промежутка : 33 мс. (1,00 видеокадр)
    Время предзагрузки промежутка : 500 мс.
    Аудио #2
    Идентификатор : 2
    Формат : AC-3
    Формат/Информация : Audio Coding 3
    Расширение режима : CM (complete main)
    Параметр Endianness формата : Big
    Идентификатор кодека : 2000
    Продолжительность : 2 ч. 1 м.
    Вид битрейта : Постоянный
    Битрейт : 256 Кбит/сек
    Каналы : 2 канала
    Расположение каналов : Front: L R
    Частота : 48,0 КГц
    Частота кадров : 31,250 кадров/сек (1536 spf)
    Метод сжатия : С потерями
    Размер потока : 223 Мбайт (11%)
    Выравнивание : Разделение по промежуткам
    Продолжительность промежутка : 33 мс. (1,00 видеокадр)
    Время предзагрузки промежутка : 500 мс.

    Скриншот c названием фильма

    Скриншоты



    Скачать .torrent

    Скачать торрент-файл бесплатно и на максимальной скорости!

    Как скачивать? · Что такое торрент? · Рейтинг и ограничения

    !ВНИМАНИЕ!
    Сайт не распространяет и не хранит электронные версии произведений, а занимается лишь лишь предоставлением доступа к создаваемому пользователями каталогу ссылок на торрент-файлы, которые содержат только списки хеш-сумм, убедительная просьба с жалобами обращаться напрямую к пользователю. Файлы для обмена на трекере предоставлены пользователями сайта, и администрация не несёт ответственности за их содержание. Просьба не заливать файлы, защищенные авторскими правами, а также файлы нелегального содержания!


    _________________
    [Профиль] [ЛС]
    Показать сообщения:    
    Ответить на тему

    Текущее время: Сегодня, в 10:51

    Часовой пояс: GMT + 2



    Вы не можете начинать темы
    Вы не можете отвечать на сообщения
    Вы не можете редактировать свои сообщения
    Вы не можете удалять свои сообщения
    Вы не можете голосовать в опросах
    Вы не можете прикреплять файлы к сообщениям
    Вы не можете скачивать файлы