BitTorrentTracker PerecTracker.org
BitTorrentTracker PerecTracker.org
    
Регистрация  ·  Вход
 
 · 
Забыли пароль?

  • Багровый пик / Crimson Peak (Гильермо дель Торо / Guillermo del Toro) [2015, США, Канада, ужасы, фэнтези, триллер, драма, мелодрама, детектив, BDRip 1080p] Dub (Blu-ray EUR) + Sub Rus, Ukr, Eng + Original Eng

    Ответить на тему
     
    Автор Сообщение

    Flirldrerve

    Создавать темы 12-Фев-2016 00:19

           

    [Цитировать]

    -Багровый пик / Crimson Peak
    «Берегись»--Страна: США, Канада
    Жанр: Ужасы, Фэнтези, Триллер, Драма
    Год выпуска: 2015
    Продолжительность: 01:58:43-Перевод: Профессиональный (дублированный) Blu-ray EUR-Cубтитры: Русские (полные, форсированные), Украинские, Английские
    Оригинальная аудиодорожка: Английская-Режиссер: Гильермо дель Торо / Guillermo del Toro-В ролях: Миа Васиковска, Джессика Честейн, Том Хиддлстон, Чарли Ханнэм, Джим Бивер, Берн Горман, Лесли Хоуп, Даг Джонс, Джонатан Хайд, Брюс Грэй, Эмили Куттс, Алек Стокуэлл, Бриджитт Робинсон, Джиллиан Феррье, Тамара Хоуп, Кимберли-Сью Мюррэй, София Уэллс, Джоанна Дуглас, Билл Лэйк, Джим Уотсон-Описание: Дурная слава преследует дом, что возвышается над городом. С приходом зимы он утопает в кровавых снегах. Говорят, дело в глине, проступающей на поверхность. Но ни единая душа не рискует ступить на ледяной склон… кроме нее. Она влюблена в таинственного незнакомца, живущего в древних стенах со своей сестрой. Багровый пик пробудился и уже не уснет.---Релиз: HDClub
    Тип релиза: BDRip 1080p
    Контейнер: MKV-Видео: MPEG-4 AVC, 1920x1038 (1.85:1), 23.976 fps, ~18500 kbps avg, 0.387 bit/pixel
    Аудио 1: 48 kHz, DTS, 3/2 (L,C,R,l,r) + LFE ch, ~768 kbps avg (Дубляж)
    Аудио 2: 48 kHz, DTS, 3/2 (L,C,R,l,r) + LFE ch, ~1509 kbps avg (Original)
    Аудио 3: 48 kHz, AC3 Dolby Digital, 2/0 (L,R) ch, ~192 kbps avg (Feature Commentary with co-writer and Director Guillermo Del Toro)-

    MediaInfo

    Complete name : D:\РАЗДАЧИ\Crimson.Peak.2015.1080p.BluRay.DTS.Rus.2xEng.HDCLUB.mkv
    Format : Matroska
    Format version : Version 2
    File size : 17.7 GiB
    Duration : 1h 58mn
    Overall bit rate : 21.4 Mbps
    Movie name : Crimson Peak (2015) - Release for HDCLUB
    Encoded date : UTC 2016-02-10 15:37:05
    Writing application : mkvmerge v3.0.0 ('Hang up your Hang-Ups') built on Dec 12 2009 15:20:35
    Writing library : libebml v0.7.9 + libmatroska v0.8.1
    Cover : Yes
    Attachment : Yes
    Video
    ID : 1
    Format : AVC
    Format/Info : Advanced Video Codec
    Format profile : High@L4.1
    Format settings, CABAC : Yes
    Format settings, ReFrames : 4 frames
    Codec ID : V_MPEG4/ISO/AVC
    Duration : 1h 58mn
    Bit rate : 18.5 Mbps
    Width : 1 920 pixels
    Height : 1 038 pixels
    Display aspect ratio : 1.85:1
    Frame rate mode : Constant
    Frame rate : 23.976 fps
    Color space : YUV
    Chroma subsampling : 4:2:0
    Bit depth : 8 bits
    Scan type : Progressive
    Bits/(Pixel*Frame) : 0.387
    Stream size : 15.3 GiB (86%)
    Title : Crimson Peak (2015) - Release for HDCLUB
    Writing library : x264 core 148 r2638kMod 7599210
    Encoding settings : cabac=1 / ref=4 / deblock=1:-2:-2 / analyse=0x3:0x133 / me=umh / subme=11 / psy=1 / fade_compensate=0.00 / psy_rd=1.00:0.00 / mixed_ref=1 / me_range=32 / chroma_me=1 / trellis=2 / 8x8dct=1 / cqm=0 / deadzone=21,11 / fast_pskip=1 / chroma_qp_offset=-2 / threads=12 / lookahead_threads=2 / sliced_threads=0 / nr=0 / decimate=1 / interlaced=0 / bluray_compat=0 / constrained_intra=0 / fgo=0 / bframes=8 / b_pyramid=2 / b_adapt=2 / b_bias=0 / direct=1 / weightb=1 / open_gop=0 / weightp=2 / keyint=250 / keyint_min=23 / scenecut=40 / intra_refresh=0 / rc_lookahead=60 / rc=crf / mbtree=0 / crf=16.0000 / qcomp=0.60 / qpmin=0 / qpmax=69 / qpstep=4 / vbv_maxrate=62500 / vbv_bufsize=78125 / crf_max=0.0 / nal_hrd=none / filler=0 / ip_ratio=1.40 / pb_ratio=1.30 / aq=1:0.80
    Language : English
    Default : Yes
    Forced : No
    Color primaries : BT.709
    Transfer characteristics : BT.709
    Matrix coefficients : BT.709
    Audio #1
    ID : 2
    Format : DTS
    Format/Info : Digital Theater Systems
    Mode : 16
    Format settings, Endianness : Big
    Codec ID : A_DTS
    Duration : 1h 58mn
    Bit rate mode : Constant
    Bit rate : 768 Kbps
    Channel(s) : 6 channels
    Channel positions : Front: L C R, Side: L R, LFE
    Sampling rate : 48.0 KHz
    Bit depth : 24 bits
    Compression mode : Lossy
    Stream size : 652 MiB (4%)
    Title : DTS 5.1 @ 768 kbps - DUB, Blu-ray CEE
    Language : Russian
    Default : Yes
    Forced : No
    Audio #2
    ID : 3
    Format : DTS
    Format/Info : Digital Theater Systems
    Mode : 16
    Format settings, Endianness : Big
    Codec ID : A_DTS
    Duration : 1h 58mn
    Bit rate mode : Constant
    Bit rate : 1 509 Kbps
    Channel(s) : 6 channels
    Channel positions : Front: L C R, Side: L R, LFE
    Sampling rate : 48.0 KHz
    Bit depth : 24 bits
    Compression mode : Lossy
    Stream size : 1.25 GiB (7%)
    Title : DTS 5.1 @ 1536 kbps
    Language : English
    Default : No
    Forced : No
    Audio #3
    ID : 4
    Format : AC-3
    Format/Info : Audio Coding 3
    Format profile : Dolby Digital
    Mode extension : CM (complete main)
    Format settings, Endianness : Big
    Codec ID : A_AC3
    Duration : 1h 58mn
    Bit rate mode : Constant
    Bit rate : 192 Kbps
    Channel(s) : 2 channels
    Channel positions : Front: L R
    Sampling rate : 48.0 KHz
    Bit depth : 16 bits
    Compression mode : Lossy
    Stream size : 163 MiB (1%)
    Title : AC3 2.0 @ 192 kbps - Feature Commentary with co-writer and Director Guillermo Del Toro
    Language : English
    Default : No
    Forced : No
    Text #1
    ID : 5
    Format : UTF-8
    Codec ID : S_TEXT/UTF8
    Codec ID/Info : UTF-8 Plain Text
    Title : Forced, iTunes
    Language : Russian
    Default : Yes
    Forced : No
    Text #2
    ID : 6
    Format : UTF-8
    Codec ID : S_TEXT/UTF8
    Codec ID/Info : UTF-8 Plain Text
    Title : iTunes
    Language : Russian
    Default : No
    Forced : No
    Text #3
    ID : 7
    Format : UTF-8
    Codec ID : S_TEXT/UTF8
    Codec ID/Info : UTF-8 Plain Text
    Title : iTunes
    Language : Ukrainian
    Default : No
    Forced : No
    Text #4
    ID : 8
    Format : UTF-8
    Codec ID : S_TEXT/UTF8
    Codec ID/Info : UTF-8 Plain Text
    Title : SDH, iTunes
    Language : English
    Default : No
    Forced : No
    Menu
    00:00:00.000 : en:Chapter 1
    00:06:02.528 : en:Chapter 2
    00:11:01.202 : en:Chapter 3
    00:15:29.720 : en:Chapter 4
    00:21:13.105 : en:Chapter 5
    00:25:52.926 : en:Chapter 6
    00:31:14.664 : en:Chapter 7
    00:39:26.822 : en:Chapter 8
    00:45:40.612 : en:Chapter 9
    00:51:57.030 : en:Chapter 10
    00:56:11.576 : en:Chapter 11
    01:02:05.096 : en:Chapter 12
    01:08:19.929 : en:Chapter 13
    01:14:24.835 : en:Chapter 14
    01:20:19.105 : en:Chapter 15
    01:25:54.149 : en:Chapter 16
    01:30:38.891 : en:Chapter 17
    01:36:09.638 : en:Chapter 18
    01:43:21.069 : en:Chapter 19
    01:51:24.135 : en:Chapter 20

    Скриншоты

    Скачать .torrent

    Скачать торрент-файл бесплатно и на максимальной скорости!

    Как скачивать? · Что такое торрент? · Рейтинг и ограничения

    !ВНИМАНИЕ!
    Сайт не распространяет и не хранит электронные версии произведений, а занимается лишь лишь предоставлением доступа к создаваемому пользователями каталогу ссылок на торрент-файлы, которые содержат только списки хеш-сумм, убедительная просьба с жалобами обращаться напрямую к пользователю. Файлы для обмена на трекере предоставлены пользователями сайта, и администрация не несёт ответственности за их содержание. Просьба не заливать файлы, защищенные авторскими правами, а также файлы нелегального содержания!


    _________________
    [Профиль] [ЛС]
    Показать сообщения:    
    Ответить на тему

    Текущее время: Сегодня, в 00:32

    Часовой пояс: GMT + 2



    Вы не можете начинать темы
    Вы не можете отвечать на сообщения
    Вы не можете редактировать свои сообщения
    Вы не можете удалять свои сообщения
    Вы не можете голосовать в опросах
    Вы не можете прикреплять файлы к сообщениям
    Вы не можете скачивать файлы