BitTorrentTracker PerecTracker.org
BitTorrentTracker PerecTracker.org
    
Регистрация  ·  Вход
 
 · 
Забыли пароль?

  • Идеальный парень / The Perfect Guy (Дэвид М. Розенталь / David M. Rosenthal) [2015, США, Триллер, Драма, BDRip] MVO (iTunes)

    Ответить на тему
     
    Автор Сообщение

    rechyn

    Создавать темы 12-Фев-2016 00:19

           

    [Цитировать]

    -Идеальный парень / The Perfect Guy
    «Trust one, fear the other»--Страна: США
    Жанр: Триллер, Драма
    Год выпуска: 2015
    Продолжительность: 01:39:53-Перевод: Профессиональный (многоголосый закадровый) iTunes-Cубтитры: нет
    Оригинальная аудиодорожка: нет-Режиссер: Дэвид М. Розенталь / David M. Rosenthal-В ролях: Санаа Лэтэн, Майкл Или, Моррис Честнат, Л. Скотт Колдуэлл, Чарльз С. Даттон, Джон Гец, Тесс Харпер, Кэтрин Моррис, Рутина Уэсли, Холт МакКэллани
    Описание: Казалось бы, у Ли Вон идеальная жизнь: хорошая работа и любящий парень. В свои 36 она готова сделать решающий шаг - создать семью. Но Дэйв, ее молодой человек, так не считает, он все еще боится обязательств. Это, в конечном счете, приводит их пару к разрыву.
    В то же время Ли встречает обаятельного незнакомца Картера. Он заботится о ее семье и друзьях, поэтому отношения молодых людей развиваются стремительно. Однако, его гипер опека со временем становится слишком навязчивой, даже зловещей. Когда Ли разрывает отношения, ее бывший любовник становится врагом. Ей приходится придумать хитрый план, чтобы окончательно избавиться от него.---Релиз: Twi7ter
    Качество видео: BDRip (исх. The.Perfect.Guy.2015.1080p.BluRay.AVC.DTS-HD.MA.5.1)
    Формат видео: AVI-Видео: XviD, 720x304 (2.35:1), 23.976 fps, ~1634 kbps avg, 0.31 bit/pixel
    Аудио: 48 kHz, AC3 Dolby Digital, 3/2 (L,C,R,l,r) + LFE ch, ~384 kbps avg-

    MediaInfo

    Complete name : D:\РАЗДАЧИ\Idealnyj.paren.2015.P.BDRip.1.46Gb_MegaPeer_by_Twi7ter.avi
    Format : AVI
    Format/Info : Audio Video Interleave
    File size : 1.41 GiB
    Duration : 1h 39mn
    Overall bit rate : 2 028 Kbps
    Movie name : Idealnyj.paren.2015.P.BDRip.1.46Gb_MegaPeer_by_Twi7ter
    Director : Twi7ter
    Genre : Thriller/Drama
    Writing application : VirtualDubMod 1.5.10.3 (build 2550/release)
    Writing library : VirtualDubMod build 2550/release
    Original source form/Name : Movie
    Video
    ID : 0
    Format : MPEG-4 Visual
    Format profile : Advanced Simple@L5
    Format settings, BVOP : 2
    Format settings, QPel : No
    Format settings, GMC : No warppoints
    Format settings, Matrix : Custom
    Codec ID : XVID
    Codec ID/Hint : XviD
    Duration : 1h 39mn
    Bit rate : 1 634 Kbps
    Width : 720 pixels
    Height : 304 pixels
    Display aspect ratio : 2.35:1
    Frame rate : 23.976 fps
    Color space : YUV
    Chroma subsampling : 4:2:0
    Bit depth : 8 bits
    Scan type : Progressive
    Compression mode : Lossy
    Bits/(Pixel*Frame) : 0.311
    Stream size : 1.14 GiB (81%)
    Writing library : XviD 73
    Audio
    ID : 1
    Format : AC-3
    Format/Info : Audio Coding 3
    Codec ID : 2000
    Duration : 1h 39mn
    Bit rate mode : Constant
    Bit rate : 384 Kbps
    Channel(s) : 6 channels
    Sampling rate : 48.0 KHz
    Compression mode : Lossy
    Stream size : 274 MiB (19%)
    Alignment : Split accross interleaves
    Interleave, duration : 42 ms (1.00 video frame)
    Interleave, preload duration : 500 ms

    Скриншот c названием фильма

    Скриншоты

    Скачать .torrent

    Скачать торрент-файл бесплатно и на максимальной скорости!

    Как скачивать? · Что такое торрент? · Рейтинг и ограничения

    !ВНИМАНИЕ!
    Сайт не распространяет и не хранит электронные версии произведений, а занимается лишь лишь предоставлением доступа к создаваемому пользователями каталогу ссылок на торрент-файлы, которые содержат только списки хеш-сумм, убедительная просьба с жалобами обращаться напрямую к пользователю. Файлы для обмена на трекере предоставлены пользователями сайта, и администрация не несёт ответственности за их содержание. Просьба не заливать файлы, защищенные авторскими правами, а также файлы нелегального содержания!


    _________________
    [Профиль] [ЛС]
    Показать сообщения:    
    Ответить на тему

    Текущее время: Сегодня, в 10:27

    Часовой пояс: GMT + 2



    Вы не можете начинать темы
    Вы не можете отвечать на сообщения
    Вы не можете редактировать свои сообщения
    Вы не можете удалять свои сообщения
    Вы не можете голосовать в опросах
    Вы не можете прикреплять файлы к сообщениям
    Вы не можете скачивать файлы