BitTorrentTracker PerecTracker.org
BitTorrentTracker PerecTracker.org
    
Регистрация  ·  Вход
 
 · 
Забыли пароль?

  • Перси Джексон и похититель молний / Percy Jackson & the Olympians: The Lightning Thief (Крис Коламбус / Chris Columbus) [2010, США, Фэнтези, Приключения, Семейный, HDTV 1080i][Open Matte] Dub + MVO + Eng + Sub Rus, Eng

    Ответить на тему
     
    Автор Сообщение

    Flirldrerve

    Создавать темы 11-Фев-2016 20:07

           

    [Цитировать]

    Перси Джексон и похититель молний / Percy Jackson & the Olympians: The Lightning Thief
    Страна: США
    Жанр: Фэнтези, Приключения, Семейный
    Год выпуска: 2010
    Продолжительность: 01:49:20
    Перевод: Профессиональный (многоголосый закадровый) 1 канал
    Cубтитры: русские полные, русские форсированные, английские
    Оригинальная аудиодорожка: нет
    Режиссер: Крис Коламбус / Chris Columbus
    В ролях: Логан Лерман, Брэндон Т. Джексон, Александра Даддарио, Джейк Эйбел, Шон Бин, Пирс Броснан, Стив Куган, Розарио Доусон, Мелина Канакаридис, Кэтрин Кинери и др.
    Описание: Главный персонаж — мальчик, узнавший, что его отец — греческий бог. В сопровождении сатира и дочери Афины он отправляется в опасное путешествие, чтобы примирить богов.
    Доп.информация: Запись с канала Первый HD. Из видеоряда удалены все послерекламные вставки. Добавлены дубляж, оригинальная дорожка и субтитры. Перепаковано в mkv. Поскольку финальные титры ускоренные, и в них в перерыве идет сцена с головой Горгоны, дорожки и субтитры с BD пришлось резать и подгонять. HDTV и BD имеют разное наполнение кадра http://screenshotcomparison.com/comparison/76629
    Сэмпл: https://yadi.sk/i/DHleqSpNofvGH
    Качество видео: HDTV 1080i
    Формат видео: mkv
    Видео: AVC, 1920x1080 (16/9), 25.000 fps, 12.2 Mbps (0.235 bit/pixel)
    Аудио: AC-3, 48.0 KHz, 6 ch, 448 Kbps, CBR (Russian) - dub
    Аудио 2: AC-3, 48.0 KHz, 2 ch, 192 Kbps, CBR (Russian) - mvo
    Аудио 3: AC-3, 48.0 KHz, 6 ch, 448 Kbps, CBR (English)
    Субтитры: softsub

    MediaInfo

    Общее
    Уникальный идентификатор : 170554797101124419607705624850825840168 (0x804FA8BA187D7238BCD0B2943C258628)
    Полное имя : N:\Перси Джексон и похититель молний.mkv
    Формат : Matroska
    Версия формата : Version 2
    Размер файла : 10,5 Гбайт
    Продолжительность : 1 ч. 53 м.
    Общий поток : 13,3 Мбит/сек
    Дата кодирования : UTC 2016-02-11 14:30:45
    Программа кодирования : mkvmerge v8.2.0 ('World of Adventure') 64bit
    Библиотека кодирования : libebml v1.3.1 + libmatroska v1.4.2
    Видео
    Идентификатор : 1
    Формат : AVC
    Формат/Информация : Advanced Video Codec
    Профиль формата : Main@L4
    Параметр CABAC формата : Да
    Параметр ReFrames формата : 3 кадра
    Параметр GOP формата : M=4, N=28
    Идентификатор кодека : V_MPEG4/ISO/AVC
    Продолжительность : 1 ч. 53 м.
    Битрейт : 12,0 Мбит/сек
    Ширина : 1920 пикселей
    Высота : 1080 пикселей
    Соотношение сторон : 16:9
    Режим частоты кадров : Постоянный
    Частота кадров : 25,000 кадров/сек
    Стандарт вещания : Component
    Цветовое пространство : YUV
    Субдискретизация насыщенности : 4:2:0
    Битовая глубина : 8 бит
    Тип развёртки : Чересстрочная
    Метод сохранения типа развёртки : Раздельные поля
    Порядок развёртки : Верхнее поле первое
    Бит/(Пиксели*Кадры) : 0.231
    Размер потока : 9,48 Гбайт (90%)
    Заголовок : Перси Джексон и похититель молний / Percy Jackson & the Olympians: The Lightning Thief (2010)
    Язык : English
    Default : Да
    Forced : Нет
    Цветовой диапазон : Limited
    Основные цвета : BT.709
    Характеристики трансфера : BT.709
    Коэффициенты матрицы : BT.709
    Аудио #1
    Идентификатор : 2
    Формат : AC-3
    Формат/Информация : Audio Coding 3
    Расширение режима : CM (complete main)
    Параметр Endianness формата : Big
    Идентификатор кодека : A_AC3
    Продолжительность : 1 ч. 53 м.
    Вид битрейта : Постоянный
    Битрейт : 448 Кбит/сек
    Каналы : 6 каналов
    Расположение каналов : Front: L C R, Side: L R, LFE
    Частота : 48,0 КГц
    Частота кадров : 31,250 кадров/сек (1536 spf)
    Метод сжатия : С потерями
    Размер потока : 363 Мбайт (3%)
    Заголовок : Профессиональный (полное дублирование)
    Язык : Russian
    Default : Да
    Forced : Нет
    Аудио #2
    Идентификатор : 3
    Формат : AC-3
    Формат/Информация : Audio Coding 3
    Расширение режима : CM (complete main)
    Параметр Endianness формата : Big
    Идентификатор кодека : A_AC3
    Продолжительность : 1 ч. 53 м.
    Вид битрейта : Постоянный
    Битрейт : 192 Кбит/сек
    Каналы : 2 канала
    Расположение каналов : Front: L R
    Частота : 48,0 КГц
    Частота кадров : 31,250 кадров/сек (1536 spf)
    Метод сжатия : С потерями
    Размер потока : 155 Мбайт (1%)
    Заголовок : Профессиональный (многоголосый закадровый) 1 канал
    Язык : Russian
    Default : Нет
    Forced : Нет
    Аудио #3
    Идентификатор : 4
    Формат : AC-3
    Формат/Информация : Audio Coding 3
    Расширение режима : CM (complete main)
    Параметр Endianness формата : Big
    Идентификатор кодека : A_AC3
    Продолжительность : 1 ч. 53 м.
    Вид битрейта : Постоянный
    Битрейт : 448 Кбит/сек
    Каналы : 6 каналов
    Расположение каналов : Front: L C R, Side: L R, LFE
    Частота : 48,0 КГц
    Частота кадров : 31,250 кадров/сек (1536 spf)
    Метод сжатия : С потерями
    Размер потока : 363 Мбайт (3%)
    Заголовок : Английский
    Язык : English
    Default : Нет
    Forced : Нет
    Текст #1
    Идентификатор : 5
    Формат : UTF-8
    Идентификатор кодека : S_TEXT/UTF8
    Идентификатор кодека/Информация : UTF-8 Plain Text
    Заголовок : полные
    Язык : Russian
    Default : Нет
    Forced : Нет
    Текст #2
    Идентификатор : 6
    Формат : UTF-8
    Идентификатор кодека : S_TEXT/UTF8
    Идентификатор кодека/Информация : UTF-8 Plain Text
    Заголовок : форсированные
    Язык : Russian
    Default : Нет
    Forced : Нет
    Текст #3
    Идентификатор : 7
    Формат : UTF-8
    Идентификатор кодека : S_TEXT/UTF8
    Идентификатор кодека/Информация : UTF-8 Plain Text
    Заголовок : английские
    Язык : English
    Default : Нет
    Forced : Нет

    Скриншоты

    Торрент перезалит 11.02.16 - Из видеоряда удалены все послерекламные вставки. Добавлены дубляж, оригинальная дорожка и субтитры. Перепаковано в mkv
    Скачать .torrent

    Скачать торрент-файл бесплатно и на максимальной скорости!

    Как скачивать? · Что такое торрент? · Рейтинг и ограничения

    !ВНИМАНИЕ!
    Сайт не распространяет и не хранит электронные версии произведений, а занимается лишь лишь предоставлением доступа к создаваемому пользователями каталогу ссылок на торрент-файлы, которые содержат только списки хеш-сумм, убедительная просьба с жалобами обращаться напрямую к пользователю. Файлы для обмена на трекере предоставлены пользователями сайта, и администрация не несёт ответственности за их содержание. Просьба не заливать файлы, защищенные авторскими правами, а также файлы нелегального содержания!


    _________________
    [Профиль] [ЛС]
    Показать сообщения:    
    Ответить на тему

    Текущее время: Сегодня, в 18:51

    Часовой пояс: GMT + 2



    Вы не можете начинать темы
    Вы не можете отвечать на сообщения
    Вы не можете редактировать свои сообщения
    Вы не можете удалять свои сообщения
    Вы не можете голосовать в опросах
    Вы не можете прикреплять файлы к сообщениям
    Вы не можете скачивать файлы