BitTorrentTracker PerecTracker.org
BitTorrentTracker PerecTracker.org
    
Регистрация  ·  Вход
 
 · 
Забыли пароль?

  • Крик Изнутри / A Cry from Within (Зак Миллер / Zach Miller, Дебора Твисс / Deborah Twiss) [2014, США, Ужасы, триллер, детектив, WEB-DLRip] DVO + Original Eng

    Ответить на тему
     
    Автор Сообщение

    rechyn

    Создавать темы 11-Фев-2016 11:43

           

    [Цитировать]

    Крик Изнутри / A Cry from WithinСтрана: США
    Жанр: Ужасы, триллер, детектив
    Год выпуска: 2014
    Продолжительность: 01:34:47
    Перевод: Любительский (двухголосый закадровый) Galina Vasyukova & datynet; перевод: Куценко
    Cубтитры: нет
    Оригинальная аудиодорожка: английский
    Режиссер: Зак Миллер/Zach Miller; Дебора Твисс / Deborah Twiss
    В ролях: Эрик Робертс, Кэти Мориарти, Дебора Твисс, Джеймс МакКэффри, Сидни МакКанн, Мэттью МакКанн, Том Пелфри, Роберт Вон, Пэт Паттерсон, Джорни Гонсалес
    Описание: Семья из Нью-Йорка застряла в полосе безденежья, а потому они решают упростить свою жизнь и переехать в провинцию. Дом, который Джонатан и Сесиль выбирают в качестве места жительства, медленно дает им понять, что именно он выбрал их, а не наоборот. Их двое детей, 8-летняя Ариэль и 10-летний Морган , вскоре после переезда сталкиваются с пугающими событиями. Общую картину нервозности дополняет и сам городок, в котором они поселились, где окружающие тоже кажутся если не сумасшедшими, то странными. Психологический триллер о темных тайнах, уничтожающих людей и их семьи изнутри.
    Доп. информация:

    Сэмпл: http://sendfile.su/1202851
    Качество видео: WEB-DLRip
    Формат видео: AVI
    Видео: 720x304 (2.37:1), 23.976 fps, XviD MPEG-4 ~1793 kbps avg, 0.34 bit/pixel
    Аудио: 48 kHz, AC3 Dolby Digital, 2/0 (L,R) ch, ~192 kbps (Russian)
    Аудио 2: 48 kHz, AC3 Dolby Digital, 2/0 (L,R) ch, ~192 kbps (English)

    MediaInfo

    General
    Complete name : E:\A.Cry.from.Within.L2.2014.WEB-DLRip.avi
    Format : AVI
    Format/Info : Audio Video Interleave
    File size : 1.45 GiB
    Duration : 1h 34mn
    Overall bit rate : 2 192 Kbps
    Writing application : VirtualDubMod 1.5.10.3 | www.virtualdub-fr.org || (build 2550/release)
    Writing library : VirtualDubMod build 2550/release
    Video
    ID : 0
    Format : MPEG-4 Visual
    Format profile : Advanced Simple@L5
    Format settings, BVOP : 2
    Format settings, QPel : No
    Format settings, GMC : No warppoints
    Format settings, Matrix : Default (H.263)
    Codec ID : XVID
    Codec ID/Hint : XviD
    Duration : 1h 34mn
    Bit rate : 1 794 Kbps
    Width : 720 pixels
    Height : 304 pixels
    Display aspect ratio : 2.35:1
    Frame rate : 23.976 fps
    Color space : YUV
    Chroma subsampling : 4:2:0
    Bit depth : 8 bits
    Scan type : Progressive
    Compression mode : Lossy
    Bits/(Pixel*Frame) : 0.342
    Stream size : 1.19 GiB (82%)
    Writing library : XviD 64
    Audio #1
    ID : 1
    Format : AC-3
    Format/Info : Audio Coding 3
    Mode extension : CM (complete main)
    Format settings, Endianness : Big
    Codec ID : 2000
    Duration : 1h 34mn
    Bit rate mode : Constant
    Bit rate : 192 Kbps
    Channel(s) : 2 channels
    Channel positions : Front: L R
    Sampling rate : 48.0 KHz
    Bit depth : 16 bits
    Compression mode : Lossy
    Stream size : 130 MiB (9%)
    Alignment : Split accross interleaves
    Interleave, duration : 42 ms (1.00 video frame)
    Interleave, preload duration : 500 ms
    Audio #2
    ID : 2
    Format : AC-3
    Format/Info : Audio Coding 3
    Mode extension : CM (complete main)
    Format settings, Endianness : Big
    Codec ID : 2000
    Duration : 1h 34mn
    Bit rate mode : Constant
    Bit rate : 192 Kbps
    Channel(s) : 2 channels
    Channel positions : Front: L R
    Sampling rate : 48.0 KHz
    Bit depth : 16 bits
    Compression mode : Lossy
    Stream size : 130 MiB (9%)
    Alignment : Split accross interleaves
    Interleave, duration : 42 ms (1.00 video frame)
    Interleave, preload duration : 500 ms

    Скриншот c названием фильма

    Скриншоты







    Скачать .torrent

    Скачать торрент-файл бесплатно и на максимальной скорости!

    Как скачивать? · Что такое торрент? · Рейтинг и ограничения

    !ВНИМАНИЕ!
    Сайт не распространяет и не хранит электронные версии произведений, а занимается лишь лишь предоставлением доступа к создаваемому пользователями каталогу ссылок на торрент-файлы, которые содержат только списки хеш-сумм, убедительная просьба с жалобами обращаться напрямую к пользователю. Файлы для обмена на трекере предоставлены пользователями сайта, и администрация не несёт ответственности за их содержание. Просьба не заливать файлы, защищенные авторскими правами, а также файлы нелегального содержания!


    _________________
    [Профиль] [ЛС]
    Показать сообщения:    
    Ответить на тему

    Текущее время: Сегодня, в 18:34

    Часовой пояс: GMT + 2



    Вы не можете начинать темы
    Вы не можете отвечать на сообщения
    Вы не можете редактировать свои сообщения
    Вы не можете удалять свои сообщения
    Вы не можете голосовать в опросах
    Вы не можете прикреплять файлы к сообщениям
    Вы не можете скачивать файлы