BitTorrentTracker PerecTracker.org
BitTorrentTracker PerecTracker.org
    
Регистрация  ·  Вход
 
 · 
Забыли пароль?

  • Между / Twixt (Френсис Форд Коппола / Francis Ford Coppola) [2011, США, ужасы, фэнтези, триллер, BDRip 720p] Dub (BD RUS) + 2x Ukr (R5, 1+1) + Original Eng + Sub (Rus, Eng)

    Ответить на тему
     
    Автор Сообщение

    Flirldrerve

    Создавать темы 11-Фев-2016 00:48

           

    [Цитировать]

    Между / Twixt-Год выпуска: 2011
    Выпущено: США
    Жанр: ужасы, фэнтези, триллер
    Продолжительность: 01:28:07
    Перевод: Профессиональный (полное дублирование) Blu-Ray RUS
    Оригинальная звуковая дорожка: English
    Субтитры: Russian, English-Режиссер: Френсис Форд Коппола / Francis Ford Coppola
    В ролях: Вэл Килмер, Брюс Дерн, Эль Фаннинг, Бен Чаплин, Энтони Фуско, Олден Эйренрайк, Дэвид Пэймер, Джоэнн Уэлли, Дон Новелло, Райан Симпкинс
    О фильме: Потерявший вдохновение писатель приезжает в захолустный городок, где пытается разгадать серию загадочных убийств. Во сне ему с завидным упорством является призрак окровавленной девочки Ви, которая пытается сообщить ему страшную тайну. Возможно, распутав цепь странных событий, писатель сможет, наконец, преодолеть кризис и создать новую книгу - о вампирах, потустороннем мире и легендарном Эдгаре Аллане По.-TayTO!
    Релиз:
    Формат: MKV
    Тип релиза: BDRip 720p
    Источник: 1080p Blu-ray AVC DTS-HD MA 5.1-TTG
    Видео: 1280x640 at 23.976 fps, 2pass, ~6 500 kbps avg
    Аудио #01: Russian: 48 kHz, DTS, 3/2 (L,C,R,l,r) + LFE ch, ~1536.00 kbps avg |Дубляж, Blu-Ray RUS|
    Аудио #02: Ukrainian: 48 kHz, AC3, 3/2 (L,C,R,l,r) + LFE ch, ~384.00 kbps avg |Многоголосый закадровый, R5|
    Аудио #03: Ukrainian: 48 kHz, AC3, 2/0 (L,R) ch, ~192.00 kbps avg |Многоголосый закадровый, 1+1|
    Аудио #04: English: 48 kHz, DTS, 3/2 (L,C,R,l,r) + LFE ch, ~1536.00 kbps avg
    Семпл-

    Source vs Encode







    -

    mInfo

    Полное имя : D:\Twixt.2011.720p.BluRay.Rus.2xUkr.Eng.HDCLUB.mkv
    Формат : Matroska
    Версия формата : Version 2
    Размер файла : 6,21 Гбайт
    Продолжительность : 1 ч. 28 м.
    Общий поток : 10,1 Мбит/сек
    Название фильма : Twixt (2011) - Release for HDCLUB
    Дата кодирования : UTC 2016-01-29 14:19:19
    Программа кодирования : mkvmerge v5.7.0 ('The Whirlwind') built on Jul 8 2012 20:08:51
    Библиотека кодирования : libebml v1.2.3 + libmatroska v1.3.0
    Видео
    Идентификатор : 1
    Формат : AVC
    Формат/Информация : Advanced Video Codec
    Профиль формата : High@L4.1
    Параметр CABAC формата : Да
    Параметр ReFrames формата : 10 кадров
    Идентификатор кодека : V_MPEG4/ISO/AVC
    Продолжительность : 1 ч. 28 м.
    Битрейт : 6500 Кбит/сек
    Ширина : 1280 пикселей
    Высота : 640 пикселей
    Соотношение сторон : 2,000
    Режим частоты кадров : Постоянный
    Частота кадров : 23,976 кадра/сек
    Цветовое пространство : YUV
    Субдискретизация насыщенности : 4:2:0
    Битовая глубина : 8 бит
    Тип развёртки : Прогрессивная
    Бит/(Пиксели*Кадры) : 0.331
    Размер потока : 3,87 Гбайт (62%)
    Библиотека кодирования : x264 core 142 r2409kMod d6b4e63
    Настройки программы : cabac=1 / ref=10 / deblock=1:-3:-3 / analyse=0x3:0x133 / me=tesa / subme=11 / psy=1 / fade_compensate=0.00 / psy_rd=1.05:0.00 / mixed_ref=1 / me_range=24 / chroma_me=1 / trellis=2 / 8x8dct=1 / cqm=0 / deadzone=21,11 / fast_pskip=0 / chroma_qp_offset=-2 / threads=12 / lookahead_threads=2 / sliced_threads=0 / nr=0 / decimate=1 / interlaced=0 / bluray_compat=0 / constrained_intra=0 / fgo=0 / bframes=9 / b_pyramid=2 / b_adapt=2 / b_bias=0 / direct=3 / weightb=1 / open_gop=0 / weightp=2 / keyint=250 / keyint_min=23 / scenecut=40 / intra_refresh=0 / rc=2pass / mbtree=0 / bitrate=6500 / ratetol=1.0 / qcomp=0.70 / qpmin=0 / qpmax=69 / qpstep=4 / cplxblur=20.0 / qblur=0.5 / ip_ratio=1.30 / pb_ratio=1.20 / aq=1:0.65
    Язык : English
    Default : Да
    Forced : Нет
    Коэффициенты матрицы : BT.709
    colour_range : Limited
    Аудио #1
    Идентификатор : 2
    Формат : DTS
    Формат/Информация : Digital Theater Systems
    Режим : 16
    Параметр Endianness формата : Big
    Идентификатор кодека : A_DTS
    Продолжительность : 1 ч. 28 м.
    Вид битрейта : Постоянный
    Битрейт : 1509 Кбит/сек
    Каналы : 6 каналов
    Расположение каналов : Front: L C R, Side: L R, LFE
    Частота : 48,0 КГц
    Битовая глубина : 24 бит
    Метод сжатия : С потерями
    Размер потока : 951 Мбайт (15%)
    Заголовок : |Дубляж, Blu-Ray RUS|
    Язык : Russian
    Default : Да
    Forced : Нет
    Аудио #2
    Идентификатор : 3
    Формат : AC-3
    Формат/Информация : Audio Coding 3
    Расширение режима : CM (complete main)
    Параметр Endianness формата : Big
    Идентификатор кодека : A_AC3
    Продолжительность : 1 ч. 28 м.
    Вид битрейта : Постоянный
    Битрейт : 384 Кбит/сек
    Каналы : 6 каналов
    Расположение каналов : Front: L C R, Side: L R, LFE
    Частота : 48,0 КГц
    Битовая глубина : 16 бит
    Метод сжатия : С потерями
    Размер потока : 242 Мбайт (4%)
    Заголовок : |Многоголосый закадровый, R5|
    Язык : Ukrainian
    Default : Нет
    Forced : Нет
    Аудио #3
    Идентификатор : 4
    Формат : AC-3
    Формат/Информация : Audio Coding 3
    Расширение режима : CM (complete main)
    Параметр Endianness формата : Big
    Идентификатор кодека : A_AC3
    Продолжительность : 1 ч. 28 м.
    Вид битрейта : Постоянный
    Битрейт : 192 Кбит/сек
    Каналы : 2 канала
    Расположение каналов : Front: L R
    Частота : 48,0 КГц
    Битовая глубина : 16 бит
    Метод сжатия : С потерями
    Размер потока : 121 Мбайт (2%)
    Заголовок : |Многоголосый закадровый, 1+1|
    Язык : Ukrainian
    Default : Нет
    Forced : Нет
    Аудио #4
    Идентификатор : 5
    Формат : DTS
    Формат/Информация : Digital Theater Systems
    Режим : 16
    Параметр Endianness формата : Big
    Идентификатор кодека : A_DTS
    Продолжительность : 1 ч. 28 м.
    Вид битрейта : Постоянный
    Битрейт : 1509 Кбит/сек
    Каналы : 6 каналов
    Расположение каналов : Front: L C R, Side: L R, LFE
    Частота : 48,0 КГц
    Битовая глубина : 24 бит
    Метод сжатия : С потерями
    Размер потока : 951 Мбайт (15%)
    Язык : English
    Default : Нет
    Forced : Нет
    Текст #1
    Идентификатор : 6
    Формат : UTF-8
    Идентификатор кодека : S_TEXT/UTF8
    Идентификатор кодека/Информация : UTF-8 Plain Text
    Язык : Russian
    Default : Нет
    Forced : Нет
    Текст #2
    Идентификатор : 7
    Формат : UTF-8
    Идентификатор кодека : S_TEXT/UTF8
    Идентификатор кодека/Информация : UTF-8 Plain Text
    Язык : English
    Default : Нет
    Forced : Нет
    Меню
    00:00:00.000 : en:00:00:00.000
    00:02:43.455 : en:00:02:43.455
    00:05:28.453 : en:00:05:28.453
    00:08:53.324 : en:00:08:53.324
    00:12:17.320 : en:00:12:17.320
    00:16:55.264 : en:00:16:55.264
    00:20:29.270 : en:00:20:29.270
    00:24:07.279 : en:00:24:07.279
    00:28:39.384 : en:00:28:39.384
    00:33:52.405 : en:00:33:52.405
    00:39:22.986 : en:00:39:22.986
    00:43:36.489 : en:00:43:36.489
    00:47:40.649 : en:00:47:40.649
    00:50:26.440 : en:00:50:26.440
    00:54:39.067 : en:00:54:39.067
    00:58:21.248 : en:00:58:21.248
    01:01:19.342 : en:01:01:19.342
    01:04:14.350 : en:01:04:14.350
    01:05:34.764 : en:01:05:34.764
    01:07:09.359 : en:01:07:09.359
    01:11:47.136 : en:01:11:47.136
    01:14:01.604 : en:01:14:01.604
    01:19:00.235 : en:01:19:00.235
    01:23:26.168 : en:01:23:26.168
    -
    Скачать .torrent

    Скачать торрент-файл бесплатно и на максимальной скорости!

    Как скачивать? · Что такое торрент? · Рейтинг и ограничения

    !ВНИМАНИЕ!
    Сайт не распространяет и не хранит электронные версии произведений, а занимается лишь лишь предоставлением доступа к создаваемому пользователями каталогу ссылок на торрент-файлы, которые содержат только списки хеш-сумм, убедительная просьба с жалобами обращаться напрямую к пользователю. Файлы для обмена на трекере предоставлены пользователями сайта, и администрация не несёт ответственности за их содержание. Просьба не заливать файлы, защищенные авторскими правами, а также файлы нелегального содержания!


    _________________
    [Профиль] [ЛС]
    Показать сообщения:    
    Ответить на тему

    Текущее время: Сегодня, в 10:34

    Часовой пояс: GMT + 2



    Вы не можете начинать темы
    Вы не можете отвечать на сообщения
    Вы не можете редактировать свои сообщения
    Вы не можете удалять свои сообщения
    Вы не можете голосовать в опросах
    Вы не можете прикреплять файлы к сообщениям
    Вы не можете скачивать файлы