BitTorrentTracker PerecTracker.org
BitTorrentTracker PerecTracker.org
    
Регистрация  ·  Вход
 
 · 
Забыли пароль?

  • Любовный треугольник / Давайте втроём / À trois on y va / All About Them (Жером Боннел / Jérôme Bonnell) [2015, Франция, Бельгия, комедия, WEB-DL 1080p] Sub (Rus, Eng, Ger, Fre) + Original (Fre)

    Ответить на тему
     
    Автор Сообщение

    Flirldrerve

    Создавать темы 11-Фев-2016 00:48

           

    [Цитировать]

    Любовный треугольник / Давайте втроём / À trois on y va / All About ThemСтрана: Франция, Бельгия
    Жанр: комедия
    Год выпуска: 2015
    Продолжительность: 01:26:27
    Перевод: Субтитры
    Cубтитры: английские, немецкие, французские, русские
    Оригинальная аудиодорожка: французский
    Режиссер: Жером Боннел / Jérôme Bonnell
    В ролях: Анаис Демустье, Феликс Моати, Софи Вербек, Патрик д’Асумсао, Оливье Брош, Лорэ Кэлами, Hannelore Cayre, Клер Маньен, Каролин Баер, Pierre Bizet
    Описание:
    Молодые влюблённые Шарлотт и Миша только что купили дом в окрестностях Лилля, где собираются предаваться любви. Но с некоторого момента Шарлотта начала изменять Миша с Мелоди… Ничего не подозревающий Миша всё же чувствует себя до некоторой степени покинутым и в свою очередь изменяет Шарлотт, и тоже с Мелоди! Для Мелоди это настоящий кошмар. Ей дарят свою любовь сразу два человека, она со своей стороны тоже неравнодушна к обоим и должна хранить сразу две тайны…
    - ||

    участник фестиваля
    2O16 года

    -
    Тип релиза: WEB-DL 1080p
    Контейнер: MKV
    Видео: AVC (x264), 1916x1046 (1.85:1) at 24,000 fps, 4690 Кbps
    Аудио 1: AC3; 384 Kbps; CBR; 6 ch; 48 khz | Французский |
    Формат субтитров: softsub (SRT)
    Скриншоты || x264 Info || MediaInfo || Notes
    Notes: Чаптеры выдернуты с A.Trois.On.Y.Va.2015.PAL.FRENCH.DVDR-Ryotox

    MediaInfo

    General
    Unique ID                                : 203016718836770962325065545250493225121 (0x98BB99098B91FF279CF713A45590D8A1)
    Complete name                            : Давайте втроём.2015.RUSSUB.1080p.WEB-DL.x264-SiGeRiS.mkv
    Format                                   : Matroska
    Format version                           : Version 4 / Version 2
    File size                                : 3.13 GiB
    Duration                                 : 1h 26mn
    Overall bit rate                         : 5 177 Kbps
    Movie name                               : All About Them [2015] [1080p] RUSSUB
    Encoded date                             : UTC 2016-02-09 07:32:40
    Writing application                      : mkvmerge v7.8.0 ('River Man') 32bit built on Mar 27 2015 16:18:02
    Writing library                          : libebml v1.3.1 + libmatroska v1.4.2
    Video
    ID                                       : 1
    Format                                   : AVC
    Format/Info                              : Advanced Video Codec
    Format profile                           : High@L4.0
    Format settings, CABAC                   : Yes
    Format settings, ReFrames                : 4 frames
    Codec ID                                 : V_MPEG4/ISO/AVC
    Duration                                 : 1h 26mn
    Bit rate                                 : 4 690 Kbps
    Width                                    : 1 916 pixels
    Height                                   : 1 046 pixels
    Display aspect ratio                     : 1.85:1
    Frame rate mode                          : Constant
    Frame rate                               : 24.000 fps
    Color space                              : YUV
    Chroma subsampling                       : 4:2:0
    Bit depth                                : 8 bits
    Scan type                                : Progressive
    Bits/(Pixel*Frame)                       : 0.097
    Stream size                              : 2.83 GiB (91%)
    Title                                    : profile.php?mode=viewprofile&u=22488948
    Language                                 : French
    Default                                  : Yes
    Forced                                   : No
    Color primaries                          : BT.709
    Transfer characteristics                 : BT.709
    Matrix coefficients                      : BT.709
    Color range                              : Limited
    Audio
    ID                                       : 2
    Format                                   : AC-3
    Format/Info                              : Audio Coding 3
    Mode extension                           : CM (complete main)
    Format settings, Endianness              : Big
    Codec ID                                 : A_AC3
    Duration                                 : 1h 26mn
    Bit rate mode                            : Constant
    Bit rate                                 : 384 Kbps
    Channel(s)                               : 6 channels
    Channel positions                        : Front: L C R, Side: L R, LFE
    Sampling rate                            : 48.0 KHz
    Bit depth                                : 16 bits
    Compression mode                         : Lossy
    Stream size                              : 237 MiB (7%)
    Language                                 : French
    Default                                  : Yes
    Forced                                   : No
    Text #1
    ID                                       : 3
    Format                                   : UTF-8
    Codec ID                                 : S_TEXT/UTF8
    Codec ID/Info                            : UTF-8 Plain Text
    Language                                 : Russian
    Default                                  : Yes
    Forced                                   : No
    Text #2
    ID                                       : 4
    Format                                   : UTF-8
    Codec ID                                 : S_TEXT/UTF8
    Codec ID/Info                            : UTF-8 Plain Text
    Language                                 : French
    Default                                  : No
    Forced                                   : No
    Text #3
    ID                                       : 5
    Format                                   : UTF-8
    Codec ID                                 : S_TEXT/UTF8
    Codec ID/Info                            : UTF-8 Plain Text
    Language                                 : English
    Default                                  : No
    Forced                                   : No
    Text #4
    ID                                       : 6
    Format                                   : UTF-8
    Codec ID                                 : S_TEXT/UTF8
    Codec ID/Info                            : UTF-8 Plain Text
    Language                                 : German
    Default                                  : No
    Forced                                   : No
    Menu
    00:00:00.000                             : en:Chapter 1
    00:05:29.320                             : en:Chapter 2
    00:14:21.278                             : en:Chapter 3
    00:21:32.236                             : en:Chapter 4
    00:30:55.278                             : en:Chapter 5
    00:40:00.278                             : en:Chapter 6
    00:47:55.070                             : en:Chapter 7
    00:57:42.445                             : en:Chapter 8
    01:04:00.570                             : en:Chapter 9
    01:12:22.945                             : en:Chapter 10
    01:17:16.195                             : en:Chapter 11
    01:22:09.611                             : en:Chapter 12
    Скачать .torrent

    Скачать торрент-файл бесплатно и на максимальной скорости!

    Как скачивать? · Что такое торрент? · Рейтинг и ограничения

    !ВНИМАНИЕ!
    Сайт не распространяет и не хранит электронные версии произведений, а занимается лишь лишь предоставлением доступа к создаваемому пользователями каталогу ссылок на торрент-файлы, которые содержат только списки хеш-сумм, убедительная просьба с жалобами обращаться напрямую к пользователю. Файлы для обмена на трекере предоставлены пользователями сайта, и администрация не несёт ответственности за их содержание. Просьба не заливать файлы, защищенные авторскими правами, а также файлы нелегального содержания!


    _________________
    [Профиль] [ЛС]
    Показать сообщения:    
    Ответить на тему

    Текущее время: Сегодня, в 10:39

    Часовой пояс: GMT + 2



    Вы не можете начинать темы
    Вы не можете отвечать на сообщения
    Вы не можете редактировать свои сообщения
    Вы не можете удалять свои сообщения
    Вы не можете голосовать в опросах
    Вы не можете прикреплять файлы к сообщениям
    Вы не можете скачивать файлы