BitTorrentTracker PerecTracker.org
BitTorrentTracker PerecTracker.org
    
Регистрация  ·  Вход
 
 · 
Забыли пароль?

  • Что такое любовь / What Love Is (Марс Каллахан / Mars Callahan) [2007, США, комедия, WEB-DL 1080p] DVO + Sub Eng + Original Eng

    Ответить на тему
     
    Автор Сообщение

    Flirldrerve

    Создавать темы 11-Фев-2016 00:48

           

    [Цитировать]

    Что такое любовь / What Love Is
    Страна: США
    Студия: Big Sky Motion Pictures, Blessed Films
    Жанр: комедия
    Год выпуска: 2007
    Продолжительность: 01:27:48
    Перевод: Профессиональный (двухголосый закадровый)
    Cубтитры: английские
    Оригинальная аудиодорожка: английский
    Режиссер: Марс Каллахан / Mars Callahan
    В ролях: Кьюба Гудинг-мл., Энн Хэч, Джина Гершон, Мэттью Лиллард, Шон Остин, Шири Эпплби, Теренс "Т.С" Карсон, Джад Тайлор, Эндрю Дэйли, Тамала Джоунс, Марс Каллахан
    Описание: В День святого Валентина Том Райли решается сделать Саре предложение. По дороге домой он приглашает своих друзей в гости отметить это событие, но когда радостный и с бутылкой шампанского в руках попадает домой, обнаруживает, что Сары и след простыл. Вместо ее вещей он обнаруживает лишь прощальное письмо…

    Sample
    Тип релиза: WEB-DL 1080p
    Контейнер: MKV
    Видео: MPEG4 AVC Video, H264, 16:9, 1920x1080, 23.976 fps, 4941 kbps
    Аудио: Russian (AC3, 6 ch, 384 kbps, 16 bits, 48.0 KHz) - DVO
    Аудио 2: English (AC3, 6 ch, 384 kbps, 16 bits, 48.0 KHz) - оригинал
    Формат субтитров: softsub (SRT)

    MediaInfo

    General
    Unique ID : 173095605441134096069578302576259476265 (0x8239003FF81A7DE489D6AA2DD697AB29)
    Complete name : E:\What Love Is 2007 WEB-DL 1080p.mkv
    Format : Matroska
    Format version : Version 4 / Version 2
    File size : 3.57 GiB
    Duration : 1h 27mn
    Overall bit rate : 5 825 Kbps
    Encoded date : UTC 2016-02-09 07:05:28
    Writing application : mkvmerge v6.1.0 ('Old Devil') built on Mar 2 2013 14:32:37
    Writing library : libebml v1.3.0 + libmatroska v1.4.0
    Video
    ID : 1
    Format : AVC
    Format/Info : Advanced Video Codec
    Format profile : High@L4.0
    Format settings, CABAC : Yes
    Format settings, ReFrames : 4 frames
    Codec ID : V_MPEG4/ISO/AVC
    Duration : 1h 27mn
    Bit rate : 4 941 Kbps
    Width : 1 920 pixels
    Height : 1 080 pixels
    Display aspect ratio : 16:9
    Frame rate mode : Constant
    Frame rate : 23.976 fps
    Color space : YUV
    Chroma subsampling : 4:2:0
    Bit depth : 8 bits
    Scan type : Progressive
    Bits/(Pixel*Frame) : 0.099
    Stream size : 3.03 GiB (85%)
    Language : English
    Default : Yes
    Forced : No
    Color primaries : BT.709
    Transfer characteristics : BT.709
    Matrix coefficients : BT.709
    Audio #1
    ID : 2
    Format : AC-3
    Format/Info : Audio Coding 3
    Mode extension : CM (complete main)
    Format settings, Endianness : Big
    Codec ID : A_AC3
    Duration : 1h 27mn
    Bit rate mode : Constant
    Bit rate : 384 Kbps
    Channel count : 6 channels
    Channel positions : Front: L C R, Side: L R, LFE
    Sampling rate : 48.0 KHz
    Bit depth : 16 bits
    Compression mode : Lossy
    Stream size : 241 MiB (7%)
    Language : Russian
    Default : Yes
    Forced : No
    Audio #2
    ID : 3
    Format : AC-3
    Format/Info : Audio Coding 3
    Mode extension : CM (complete main)
    Format settings, Endianness : Big
    Codec ID : A_AC3
    Duration : 1h 27mn
    Bit rate mode : Constant
    Bit rate : 384 Kbps
    Channel count : 6 channels
    Channel positions : Front: L C R, Side: L R, LFE
    Sampling rate : 48.0 KHz
    Bit depth : 16 bits
    Compression mode : Lossy
    Stream size : 241 MiB (7%)
    Language : English
    Default : No
    Forced : No
    Text
    ID : 4
    Format : UTF-8
    Codec ID : S_TEXT/UTF8
    Codec ID/Info : UTF-8 Plain Text
    Language : English
    Default : No
    Forced : No
    Menu
    00:00:00.000 : en:Chapter 1
    00:03:56.000 : en:Chapter 2
    00:05:26.000 : en:Chapter 3
    00:09:56.000 : en:Chapter 4
    00:15:44.000 : en:Chapter 5
    00:17:19.000 : en:Chapter 6
    00:20:24.000 : en:Chapter 7
    00:23:34.000 : en:Chapter 8
    00:26:03.000 : en:Chapter 9
    00:28:43.000 : en:Chapter 10
    00:32:07.000 : en:Chapter 11
    00:35:15.000 : en:Chapter 12
    00:37:49.000 : en:Chapter 13
    00:40:07.000 : en:Chapter 14
    00:42:36.000 : en:Chapter 15
    00:45:39.000 : en:Chapter 16
    00:48:09.000 : en:Chapter 17
    00:50:03.000 : en:Chapter 18
    00:53:45.000 : en:Chapter 19
    00:54:47.000 : en:Chapter 20
    00:56:33.000 : en:Chapter 21
    00:58:57.000 : en:Chapter 22
    01:01:25.000 : en:Chapter 23
    01:03:39.000 : en:Chapter 24
    01:06:12.000 : en:Chapter 25
    01:08:54.000 : en:Chapter 26
    01:10:51.000 : en:Chapter 27
    01:14:15.000 : en:Chapter 28

    Скриншоты

    Скачать .torrent

    Скачать торрент-файл бесплатно и на максимальной скорости!

    Как скачивать? · Что такое торрент? · Рейтинг и ограничения

    !ВНИМАНИЕ!
    Сайт не распространяет и не хранит электронные версии произведений, а занимается лишь лишь предоставлением доступа к создаваемому пользователями каталогу ссылок на торрент-файлы, которые содержат только списки хеш-сумм, убедительная просьба с жалобами обращаться напрямую к пользователю. Файлы для обмена на трекере предоставлены пользователями сайта, и администрация не несёт ответственности за их содержание. Просьба не заливать файлы, защищенные авторскими правами, а также файлы нелегального содержания!


    _________________
    [Профиль] [ЛС]
    Показать сообщения:    
    Ответить на тему

    Текущее время: Сегодня, в 08:07

    Часовой пояс: GMT + 2



    Вы не можете начинать темы
    Вы не можете отвечать на сообщения
    Вы не можете редактировать свои сообщения
    Вы не можете удалять свои сообщения
    Вы не можете голосовать в опросах
    Вы не можете прикреплять файлы к сообщениям
    Вы не можете скачивать файлы