BitTorrentTracker PerecTracker.org
BitTorrentTracker PerecTracker.org
    
Регистрация  ·  Вход
 
 · 
Забыли пароль?

  • Жара / Heat Wave / Coup de chaud (Рафаэль Жакуло / Raphaël Jacoulot) [2015, Франция, Бельгия, драма, криминал, WEB-DL 1080p] Sub (Rus, Eng, Ger, Fre) + Original (Fre)

    Ответить на тему
     
    Автор Сообщение

    Flirldrerve

    Создавать темы 11-Фев-2016 00:48

           

    [Цитировать]

    Жара / Coup de chaud / Heat WaveСтрана: Франция, Бельгия
    Жанр: драма, криминал
    Год выпуска: 2015
    Продолжительность: 01:42:08
    Перевод: Субтитры
    Cубтитры: английские, немецкие, французские, русские
    Оригинальная аудиодорожка: французский
    Режиссер: Рафаэль Жакуло / Raphaël Jacoulot
    В ролях: Жан-Пьер Дарруссен, Грегори Гадебуа, Карим Леклу, Кароль Франк, Изабель Садоян, Серра Йильмаз, Камиль Фигуерео, Агат Дронне, Патрик Боннель, Марк Прин
    Описание:
    В разгар знойного лета, в маленькой, на вид спокойной деревушке, обыденная жизнь ее жителей нарушена Жозефом Бузу. Сын арматурщиков сеет смуту и считается основным источником всех неприятностей в деревне до тех пор, пока в один прекрасный день его не находят мертвым во дворе родительского дома…
    - ||

    участник фестиваля
    2O16 года

    -
    Тип релиза: WEB-DL 1080p
    Контейнер: MKV
    Видео: AVC (x264), 1916x802 (2.40:1) at 24,000 fps, 4346 Кbps
    Аудио 1: AC3; 384 Kbps; CBR; 6 ch; 48 khz | Французский |
    Формат субтитров: softsub (SRT)
    Скриншоты || x264 Info || MediaInfo || Notes

    MediaInfo

    General
    Unique ID                                : 251306638269063570495459847273831035046 (0xBD0FE5E2729E26979E97C785013D70A6)
    Complete name                            : Жара.2015.RUSSUB.1080p.WEB-DL.x264-SiGeRiS.mkv
    Format                                   : Matroska
    Format version                           : Version 4 / Version 2
    File size                                : 3.44 GiB
    Duration                                 : 1h 42mn
    Overall bit rate                         : 4 826 Kbps
    Movie name                               : Heat Wave [2015] [1080p] RUSSUB
    Encoded date                             : UTC 2016-02-09 09:25:25
    Writing application                      : mkvmerge v7.8.0 ('River Man') 32bit built on Mar 27 2015 16:18:02
    Writing library                          : libebml v1.3.1 + libmatroska v1.4.2
    Video
    ID                                       : 1
    Format                                   : AVC
    Format/Info                              : Advanced Video Codec
    Format profile                           : High@L4.0
    Format settings, CABAC                   : Yes
    Format settings, ReFrames                : 5 frames
    Codec ID                                 : V_MPEG4/ISO/AVC
    Duration                                 : 1h 42mn
    Bit rate                                 : 4 346 Kbps
    Width                                    : 1 916 pixels
    Height                                   : 802 pixels
    Display aspect ratio                     : 2.40:1
    Frame rate mode                          : Constant
    Frame rate                               : 24.000 fps
    Color space                              : YUV
    Chroma subsampling                       : 4:2:0
    Bit depth                                : 8 bits
    Scan type                                : Progressive
    Bits/(Pixel*Frame)                       : 0.118
    Stream size                              : 3.10 GiB (90%)
    Title                                    : profile.php?mode=viewprofile&u=22488948
    Language                                 : French
    Default                                  : Yes
    Forced                                   : No
    Color primaries                          : BT.709
    Transfer characteristics                 : BT.709
    Matrix coefficients                      : BT.709
    Color range                              : Limited
    Audio
    ID                                       : 2
    Format                                   : AC-3
    Format/Info                              : Audio Coding 3
    Mode extension                           : CM (complete main)
    Format settings, Endianness              : Big
    Codec ID                                 : A_AC3
    Duration                                 : 1h 42mn
    Bit rate mode                            : Constant
    Bit rate                                 : 384 Kbps
    Channel(s)                               : 6 channels
    Channel positions                        : Front: L C R, Side: L R, LFE
    Sampling rate                            : 48.0 KHz
    Bit depth                                : 16 bits
    Compression mode                         : Lossy
    Stream size                              : 281 MiB (8%)
    Language                                 : French
    Default                                  : Yes
    Forced                                   : No
    Text #1
    ID                                       : 3
    Format                                   : UTF-8
    Codec ID                                 : S_TEXT/UTF8
    Codec ID/Info                            : UTF-8 Plain Text
    Language                                 : Russian
    Default                                  : Yes
    Forced                                   : No
    Text #2
    ID                                       : 4
    Format                                   : UTF-8
    Codec ID                                 : S_TEXT/UTF8
    Codec ID/Info                            : UTF-8 Plain Text
    Language                                 : French
    Default                                  : No
    Forced                                   : No
    Text #3
    ID                                       : 5
    Format                                   : UTF-8
    Codec ID                                 : S_TEXT/UTF8
    Codec ID/Info                            : UTF-8 Plain Text
    Language                                 : English
    Default                                  : No
    Forced                                   : No
    Text #4
    ID                                       : 6
    Format                                   : UTF-8
    Codec ID                                 : S_TEXT/UTF8
    Codec ID/Info                            : UTF-8 Plain Text
    Language                                 : German
    Default                                  : No
    Forced                                   : No
    Скачать .torrent

    Скачать торрент-файл бесплатно и на максимальной скорости!

    Как скачивать? · Что такое торрент? · Рейтинг и ограничения

    !ВНИМАНИЕ!
    Сайт не распространяет и не хранит электронные версии произведений, а занимается лишь лишь предоставлением доступа к создаваемому пользователями каталогу ссылок на торрент-файлы, которые содержат только списки хеш-сумм, убедительная просьба с жалобами обращаться напрямую к пользователю. Файлы для обмена на трекере предоставлены пользователями сайта, и администрация не несёт ответственности за их содержание. Просьба не заливать файлы, защищенные авторскими правами, а также файлы нелегального содержания!


    _________________
    [Профиль] [ЛС]
    Показать сообщения:    
    Ответить на тему

    Текущее время: Сегодня, в 08:25

    Часовой пояс: GMT + 2



    Вы не можете начинать темы
    Вы не можете отвечать на сообщения
    Вы не можете редактировать свои сообщения
    Вы не можете удалять свои сообщения
    Вы не можете голосовать в опросах
    Вы не можете прикреплять файлы к сообщениям
    Вы не можете скачивать файлы