BitTorrentTracker PerecTracker.org
BitTorrentTracker PerecTracker.org
    
Регистрация  ·  Вход
 
 · 
Забыли пароль?

  • Пришельцы-завоеватели / Evil Aliens (Джэйк Уэст / Jake West) [2005, Великобритания, ужасы, фантастика, комедия, BDRemux 1080p] [Unrated] MVO (ТВ3) + DVO + VO (Zamez) + Sub Rus, Eng + Original Eng

    Ответить на тему
     
    Автор Сообщение

    Flirldrerve

    Создавать темы 11-Фев-2016 00:48

           

    [Цитировать]

    -Пришельцы-завоеватели / Evil Aliens / Unrated-Страна: Великобритания
    Жанр: ужасы, фантастика, комедия
    Год выпуска: 2005
    Продолжительность: 01:33:06-Перевод: Профессиональный (многоголосый закадровый) ТВ3
    Перевод 2: Любительский (двухголосый закадровый)
    Перевод 3: Одноголосый закадровый Zamez
    Cубтитры: русские, английские
    Оригинальная аудиодорожка: английский-Режиссер: Джэйк Уэст / Jake West
    В ролях: Эмили Бут, Джэми Ханниборн, Сэм Батлер, Джоди Шоу, Питер О`Коннор, Ник Смитерс, Норман Ловетт, Кристофер Адамсон, Дженнифер Эванс, Марк Ричард Хэйес-Описание: Группа английских уфологов отправляется на валлийский остров, на котором был недавно похищен пришельцами молодой человек. Они приезжают в скромный домик, где проживает группа местных жителей и находится девушка — свидетельница недавних событий, которую пришельцы непостижимым образом пощадили. В то время как учёные разворачивают своё оборудование, коварные инопланетяне приступают к массовому вторжению на Землю…-Сэмпл: https://yadi.sk/d/3s3inGJxoYmnN-Тип релиза: BDRemux 1080p
    Контейнер: MKV
    Видео: MPEG-4 AVC Video 16998 kbps 1080p / 23,976 fps / 16:9 / High Profile 4.1
    Аудио: Russian / Dolby Digital Audio / 2.0 / 48 kHz / 192 kbps | MVO ТВ3
    Аудио 2: Russian / Dolby Digital Audio / 2.0 / 48 kHz / 192 kbps | DVO
    Аудио 3: Russian / Dolby Digital Audio / 2.0 / 48 kHz / 192 kbps | VO Zamez
    Аудио 4: DTS-HD Master Audio English 3940 kbps 5.1 / 48 kHz / 3940 kbps / 24-bit (DTS Core: 5.1 / 48 kHz / 1509 kbps / 24-bit)
    Формат субтитров: softsub (SRT)

    MI

    GeneralUnique ID : 181892999302732666261245004126278315519 (0x88D751415545D7B69BF5217D0C86EDFF)Complete name : R:\На хранении\Пришельцы-завоеватели (2005. Evil Aliens).mkvFormat : MatroskaFormat version : Version 2File size : 14.0 GiBDuration : 1h 33mnOverall bit rate mode : VariableOverall bit rate : 21.5 MbpsMovie name : Release for RuTrackerEncoded date : UTC 2016-02-09 11:50:00Writing application : mkvmerge v4.9.1 ('Ich will') сборка от Jul 11 2011 23:53:15Writing library : libebml v1.2.1 + libmatroska v1.1.1
    VideoID : 1Format : AVCFormat/Info : Advanced Video CodecFormat profile : High@L4.1Format settings, CABAC : YesFormat settings, ReFrames : 4 framesCodec ID : V_MPEG4/ISO/AVCDuration : 1h 33mnBit rate mode : VariableMaximum bit rate : 35.0 MbpsWidth : 1 920 pixelsHeight : 1 080 pixelsDisplay aspect ratio : 16:9Frame rate mode : ConstantFrame rate : 23.976 fpsStandard : NTSCColor space : YUVChroma subsampling : 4:2:0Bit depth : 8 bitsScan type : ProgressiveTitle : Evil Aliens 2005 Blu-ray USA 1080p AVC DTS-HD MA 5.1 - Lizing48Language : EnglishDefault : YesForced : NoColor primaries : BT.709Transfer characteristics : BT.709Matrix coefficients : BT.709
    Audio #1ID : 2Format : AC-3Format/Info : Audio Coding 3Mode extension : CM (complete main)Format settings, Endianness : BigCodec ID : A_AC3Duration : 1h 33mnBit rate mode : ConstantBit rate : 192 KbpsChannel(s) : 2 channelsChannel positions : Front: L RSampling rate : 48.0 KHzBit depth : 16 bitsCompression mode : LossyStream size : 128 MiB (1%)Title : MVO [ТВ3]Language : RussianDefault : YesForced : No
    Audio #2ID : 3Format : AC-3Format/Info : Audio Coding 3Mode extension : CM (complete main)Format settings, Endianness : BigCodec ID : A_AC3Duration : 1h 33mnBit rate mode : ConstantBit rate : 192 KbpsChannel(s) : 2 channelsChannel positions : Front: L RSampling rate : 48.0 KHzBit depth : 16 bitsCompression mode : LossyStream size : 128 MiB (1%)Title : DVOLanguage : RussianDefault : NoForced : No
    Audio #3ID : 4Format : AC-3Format/Info : Audio Coding 3Mode extension : CM (complete main)Format settings, Endianness : BigCodec ID : A_AC3Duration : 1h 33mnBit rate mode : ConstantBit rate : 192 KbpsChannel(s) : 2 channelsChannel positions : Front: L RSampling rate : 48.0 KHzBit depth : 16 bitsCompression mode : LossyStream size : 128 MiB (1%)Title : ZamezLanguage : RussianDefault : NoForced : No
    Audio #4ID : 5Format : DTSFormat/Info : Digital Theater SystemsFormat profile : MA / CoreMode : 16Format settings, Endianness : BigCodec ID : A_DTSDuration : 1h 33mnBit rate mode : VariableBit rate : Unknown / 1 509 KbpsChannel(s) : 6 channelsChannel positions : Front: L C R, Side: L R, LFESampling rate : 48.0 KHzBit depth : 24 bitsCompression mode : Lossless / LossyLanguage : EnglishDefault : NoForced : No
    Text #1ID : 6Format : UTF-8Codec ID : S_TEXT/UTF8Codec ID/Info : UTF-8 Plain TextLanguage : RussianDefault : NoForced : No
    Text #2ID : 7Format : UTF-8Codec ID : S_TEXT/UTF8Codec ID/Info : UTF-8 Plain TextLanguage : EnglishDefault : NoForced : No
    Menu00:00:00.000 : en:00:00:00.00000:03:42.973 : en:00:03:42.97300:07:40.001 : en:00:07:40.00100:16:16.100 : en:00:16:16.10000:20:51.083 : en:00:20:51.08300:29:32.479 : en:00:29:32.47900:34:19.891 : en:00:34:19.89100:41:19.477 : en:00:41:19.47700:46:32.623 : en:00:46:32.62300:57:21.980 : en:00:57:21.98000:59:45.749 : en:00:59:45.74901:04:33.870 : en:01:04:33.87001:11:01.215 : en:01:11:01.21501:18:48.390 : en:01:18:48.39001:28:33.850 : en:01:28:33.85001:29:33.410 : en:01:29:33.410
    Скриншоты

    Зеркало


    Цитата:
    Цитата:

    • Zamez и двухголоска с этой раздачи.
    • ТВ3 с этой.
    • Сохранены оригинальные чаптеры как на Blu-ray.
    Скачать .torrent

    Скачать торрент-файл бесплатно и на максимальной скорости!

    Как скачивать? · Что такое торрент? · Рейтинг и ограничения

    !ВНИМАНИЕ!
    Сайт не распространяет и не хранит электронные версии произведений, а занимается лишь лишь предоставлением доступа к создаваемому пользователями каталогу ссылок на торрент-файлы, которые содержат только списки хеш-сумм, убедительная просьба с жалобами обращаться напрямую к пользователю. Файлы для обмена на трекере предоставлены пользователями сайта, и администрация не несёт ответственности за их содержание. Просьба не заливать файлы, защищенные авторскими правами, а также файлы нелегального содержания!


    _________________
    [Профиль] [ЛС]
    Показать сообщения:    
    Ответить на тему

    Текущее время: Сегодня, в 14:02

    Часовой пояс: GMT + 2



    Вы не можете начинать темы
    Вы не можете отвечать на сообщения
    Вы не можете редактировать свои сообщения
    Вы не можете удалять свои сообщения
    Вы не можете голосовать в опросах
    Вы не можете прикреплять файлы к сообщениям
    Вы не можете скачивать файлы