BitTorrentTracker PerecTracker.org
BitTorrentTracker PerecTracker.org
    
Регистрация  ·  Вход
 
 · 
Забыли пароль?

  • История вечной любви / Ever After: A Cinderella Story (Энди Теннант / Andy Tennant) [1998, США, драма, мелодрама, комедия, BDRip 720p] 2x MVO + Ukr + Sub Rus, Eng, Ukr + Original Eng

    Ответить на тему
     
    Автор Сообщение

    Flirldrerve

    Создавать темы 11-Фев-2016 00:48

           

    [Цитировать]

    История вечной любви / Ever After: A Cinderella Story
    Страна: США
    Жанр: драма, мелодрама, комедия
    Год выпуска: 1998
    Продолжительность: 02:01:13
    Перевод: Профессиональный (многоголосый закадровый) ОРТ
    Перевод: Профессиональный (многоголосый закадровый) НТВ
    Cубтитры: Russian, Ukrainian, English
    Оригинальная аудиодорожка: английский-Режиссер: Энди Теннант / Andy Tennant-В ролях: Дрю Бэрримор, Анджелика Хьюстон, Дюгрэй Скотт, Патрик Годфри, Меган Доддс, Мелани Лински, Тимоти Уэст, Джуди Парфитт, Ерун Краббе, Ли Инглби-Описание: Это не банальная история Золушки, которая знакома всем с детства. Для своего шестнадцатого века Даниэлла - явление уникальное. Она не только привлекательна, но и по - мальчишески ловка и энергична.
    Обладая острым умом и чувством независимости, Даниэлла не ждет, когда принц ее выручит. Напротив, она сама приходит к нему на помощь и даже в нужный момент спасает ему жизнь, перенеся на своей спине в безопасное место.
    И уж если ей приходится прибегнуть к чьей - то помощи, то помогает ей не добрая фея, а самый настоящий Леонардо да Винчи. Однако хрустальные туфельки Даниэлла действительно надевает...-Релиз от: by delia-Рип от SbR-Качество видео: BDRip | Sample
    Формат видео: MKV
    Видео: 1280x544 at 23.976 fps, x264@L4.1, ~7700 kbps avg
    Аудио 1: Russian: 48 kHz/24-bit, DTS 5.1, ~768 kbps avg |Многоголосый закадровый |ОРТ (R5)|
    Аудио 2: Russian: 48 kHz, AC3, 2/0 (L,R) ch, ~192 kbps avg |Многоголосый закадровый, НТВ|
    Аудио 3: Ukrainian: 48 kHz, AC3, 2/0 (L,R) ch, ~192 kbps avg |Двухголосый закадровый|
    Аудио 4: English: 48 kHz/16-bit, DTS 5.1, ~1509 kbps avg-Дополнительно
    Цитата:
    Цитата:

    • Сохранены оригинальные чаптеры как на Blu-ray.
    • За украинскую дорожку спасибо Hurtom

    MediaInfo

    Format                      : Matroska
    Format version              : Version 4 / Version 2
    File size                   : 8.77 GiB
    Duration                    : 2h 1mn
    Overall bit rate            : 10.4 Mbps
    Encoded date                : UTC 2016-02-09 05:56:26
    Writing application         : mkvmerge v8.3.0 ('Over the Horizon') 64bit
    Writing library             : libebml v1.3.1 + libmatroska v1.4.2
    Attachements                : cover.jpg
    Video
    ID                          : 1
    Format                      : AVC
    Format/Info                 : Advanced Video Codec
    Format profile              : High@L4.1
    Format settings, CABAC      : Yes
    Format settings, ReFrames   : 12 frames
    Codec ID                    : V_MPEG4/ISO/AVC
    Duration                    : 2h 1mn
    Bit rate                    : 7 700 Kbps
    Width                       : 1 280 pixels
    Height                      : 544 pixels
    Display aspect ratio        : 2.35:1
    Frame rate mode             : Constant
    Frame rate                  : 23.976 (24000/1001) fps
    Color space                 : YUV
    Chroma subsampling          : 4:2:0
    Bit depth                   : 8 bits
    Scan type                   : Progressive
    Bits/(Pixel*Frame)          : 0.461
    Stream size                 : 6.52 GiB (74%)
    Writing library             : x264 core 148 r2638+53 bb29004 t_mod_Custom [8-bit@all X86_64]
    Encoding settings           : cabac=1 / ref=12 / deblock=1:-3:-3 / analyse=0x3:0x133 / me=umh / subme=11 / psy=1 / fade_compensate=0.00 / psy_rd=1.10:0.05 / mixed_ref=1 / me_range=24 / chroma_me=1 / trellis=2 / 8x8dct=1 / cqm=0 / deadzone=21,11 / fast_pskip=0 / chroma_qp_offset=-3 / threads=6 / lookahead_threads=1 / sliced_threads=0 / nr=0 / decimate=1 / interlaced=0 / bluray_compat=0 / constrained_intra=0 / fgo=0 / bframes=11 / b_pyramid=2 / b_adapt=2 / b_bias=0 / direct=3 / weightb=1 / open_gop=0 / weightp=2 / keyint=250 / keyint_min=23 / scenecut=40 / intra_refresh=0 / rc=2pass / mbtree=0 / bitrate=7700 / ratetol=1.0 / qcomp=0.70 / qpmin=0:0:0 / qpmax=69:69:69 / qpstep=4 / cplxblur=20.0 / qblur=0.5 / ip_ratio=1.30 / pb_ratio=1.20 / aq=3:0.65 / aq-sensitivity=10.00 / aq-factor=1.00:1.00:1.00 / aq2=0 / aq3=0
    Language                    : English
    Default                     : Yes
    Forced                      : No
    Color range                 : Limited
    Matrix coefficients         : BT.709
    Audio #1
    ID                          : 2
    Format                      : DTS
    Format/Info                 : Digital Theater Systems
    Mode                        : 16
    Format settings, Endianness : Big
    Codec ID                    : A_DTS
    Duration                    : 2h 1mn
    Bit rate mode               : Constant
    Bit rate                    : 768 Kbps
    Channel(s)                  : 6 channels
    Channel positions           : Front: L C R, Side: L R, LFE
    Sampling rate               : 48.0 KHz
    Frame rate                  : 93.750 fps (512 spf)
    Bit depth                   : 24 bits
    Compression mode            : Lossy
    Stream size                 : 666 MiB (7%)
    Title                       : Многоголосый закадровый ОРТ (R5)
    Language                    : Russian
    Default                     : Yes
    Forced                      : No
    Audio #2
    ID                          : 3
    Format                      : AC-3
    Format/Info                 : Audio Coding 3
    Mode extension              : CM (complete main)
    Format settings, Endianness : Big
    Codec ID                    : A_AC3
    Duration                    : 2h 1mn
    Bit rate mode               : Constant
    Bit rate                    : 192 Kbps
    Channel(s)                  : 2 channels
    Channel positions           : Front: L R
    Sampling rate               : 48.0 KHz
    Frame rate                  : 31.250 fps (1536 spf)
    Compression mode            : Lossy
    Stream size                 : 166 MiB (2%)
    Title                       : Многоголосый, закадровый  - НТВ
    Language                    : Russian
    Default                     : No
    Forced                      : No
    Audio #3
    ID                          : 4
    Format                      : AC-3
    Format/Info                 : Audio Coding 3
    Mode extension              : CM (complete main)
    Format settings, Endianness : Big
    Codec ID                    : A_AC3
    Duration                    : 2h 1mn
    Bit rate mode               : Constant
    Bit rate                    : 192 Kbps
    Channel(s)                  : 2 channels
    Channel positions           : Front: L R
    Sampling rate               : 48.0 KHz
    Frame rate                  : 31.250 fps (1536 spf)
    Compression mode            : Lossy
    Stream size                 : 166 MiB (2%)
    Title                       : Двухголосый закадровый
    Language                    : Ukrainian
    Default                     : No
    Forced                      : No
    Audio #4
    ID                          : 5
    Format                      : DTS
    Format/Info                 : Digital Theater Systems
    Mode                        : 16
    Format settings, Endianness : Big
    Codec ID                    : A_DTS
    Duration                    : 2h 1mn
    Bit rate mode               : Constant
    Bit rate                    : 1 509 Kbps
    Channel(s)                  : 6 channels
    Channel positions           : Front: L C R, Side: L R, LFE
    Sampling rate               : 48.0 KHz
    Frame rate                  : 93.750 fps (512 spf)
    Bit depth                   : 24 bits
    Compression mode            : Lossy
    Stream size                 : 1.28 GiB (15%)
    Language                    : English
    Default                     : No
    Forced                      : No
    Text #1
    ID                          : 6
    Format                      : UTF-8
    Codec ID                    : S_TEXT/UTF8
    Codec ID/Info               : UTF-8 Plain Text
    Duration                    : 1h 59mn
    Bit rate                    : 78 bps
    Count of elements           : 1448
    Stream size                 : 69.2 KiB (0%)
    Language                    : Russian
    Default                     : No
    Forced                      : No
    Text #2
    ID                          : 7
    Format                      : UTF-8
    Codec ID                    : S_TEXT/UTF8
    Codec ID/Info               : UTF-8 Plain Text
    Duration                    : 1h 59mn
    Bit rate                    : 76 bps
    Count of elements           : 1431
    Stream size                 : 67.5 KiB (0%)
    Language                    : Ukrainian
    Default                     : No
    Forced                      : No
    Text #3
    ID                          : 8
    Format                      : UTF-8
    Codec ID                    : S_TEXT/UTF8
    Codec ID/Info               : UTF-8 Plain Text
    Duration                    : 1h 59mn
    Bit rate                    : 50 bps
    Count of elements           : 1459
    Stream size                 : 44.8 KiB (0%)
    Language                    : English
    Default                     : No
    Forced                      : No
    Menu
    00:00:00.000                : en:00:00:00.000
    00:08:37.767                : en:00:08:37.767
    00:11:26.686                : en:00:11:26.686
    00:15:32.932                : en:00:15:32.932
    00:19:11.567                : en:00:19:11.567
    00:26:36.553                : en:00:26:36.553
    00:33:35.013                : en:00:33:35.013
    00:34:41.454                : en:00:34:41.454
    00:37:50.185                : en:00:37:50.185
    00:42:35.511                : en:00:42:35.511
    00:49:23.127                : en:00:49:23.127
    00:52:32.775                : en:00:52:32.775
    00:55:03.467                : en:00:55:03.467
    01:01:59.299                : en:01:01:59.299
    01:04:54.849                : en:01:04:54.849
    01:07:38.179                : en:01:07:38.179
    01:11:22.487                : en:01:11:22.487
    01:15:23.686                : en:01:15:23.686
    01:17:16.090                : en:01:17:16.090
    01:21:10.699                : en:01:21:10.699
    01:23:45.520                : en:01:23:45.520
    01:29:26.444                : en:01:29:26.444
    01:34:34.669                : en:01:34:34.669
    01:37:16.831                : en:01:37:16.831
    01:41:01.305                : en:01:41:01.305
    01:43:42.925                : en:01:43:42.925
    01:46:22.960                : en:01:46:22.960
    01:49:22.181                : en:01:49:22.181
    01:54:56.389                : en:01:54:56.389
    01:57:06.436                : en:01:57:06.436

    Скриншоты

    Скачать .torrent

    Скачать торрент-файл бесплатно и на максимальной скорости!

    Как скачивать? · Что такое торрент? · Рейтинг и ограничения

    !ВНИМАНИЕ!
    Сайт не распространяет и не хранит электронные версии произведений, а занимается лишь лишь предоставлением доступа к создаваемому пользователями каталогу ссылок на торрент-файлы, которые содержат только списки хеш-сумм, убедительная просьба с жалобами обращаться напрямую к пользователю. Файлы для обмена на трекере предоставлены пользователями сайта, и администрация не несёт ответственности за их содержание. Просьба не заливать файлы, защищенные авторскими правами, а также файлы нелегального содержания!


    _________________
    [Профиль] [ЛС]
    Показать сообщения:    
    Ответить на тему

    Текущее время: Сегодня, в 23:10

    Часовой пояс: GMT + 2



    Вы не можете начинать темы
    Вы не можете отвечать на сообщения
    Вы не можете редактировать свои сообщения
    Вы не можете удалять свои сообщения
    Вы не можете голосовать в опросах
    Вы не можете прикреплять файлы к сообщениям
    Вы не можете скачивать файлы