BitTorrentTracker PerecTracker.org
BitTorrentTracker PerecTracker.org
    
Регистрация  ·  Вход
 
 · 
Забыли пароль?

  • Ледяные пираты / Ледовые пираты / The Ice Pirates (Стюарт Рэффил / Stewart Raffill) [1984, США, фантастика, комедия, приключения, BDRip 720p] MVO (СВ-Кадр) + Sub Eng + Original Eng

    Ответить на тему
     
    Автор Сообщение

    Flirldrerve

    Создавать темы 11-Фев-2016 00:48

           

    [Цитировать]

    Ледяные пираты / Ледовые пираты / The Ice Pirates
    Страна: США
    Жанр: фантастика, комедия, приключения
    Год выпуска: 1984
    Продолжительность: 01:33:59
    Перевод: Профессиональный (многоголосый закадровый) СВ-Кадр по заказу ТНТ
    Cубтитры: английские
    Оригинальная аудиодорожка: английский
    Режиссер: Стюарт Рэффил / Stewart Raffill
    В ролях: Роберт Урих, Мэри Кросби, Майкл Д. Робертс, Анжелика Хьюстон, Джон Матушак, Рон Перлман, Джон Кэрредин, Натали Кор, Джереми Уэст, Брюс Виленч...
    Описание: В начале четвертого тысячелетия в Галактике наступил сушняк — всю воду выпили. Перебиваются квасом и ракетным топливом. Но по воде скучают страшно, вплоть до рубки на мечах. Плюс боевые роботы где-то тут же бегают и мешают блистать космическим принцессам…
    Сэмпл: http://multi-up.com/1088383
    Тип релиза: BDRip 720p
    Контейнер: MKV
    Видео: 1280x720 (16:9), 23.976 fps, AVC, ~5120 Kbps, 0.232 bits/pixel
    Аудио 1: Russian, 48.0 KHz, AC3, 2 ch, 192 Kbps - СВ-Кадр
    Аудио 2: English, 48.0 KHz, DTS, 2 ch, 1510 Kbps

    MediaInfo

    General
    Unique ID : 170974118955163052188796358788214967998 (0x80A06AE3F92DFE58864B3D61DE404EBE)
    Complete name : C:\The Ice Pirates. BDRip 720p.mkv
    Format : Matroska
    Format version : Version 4 / Version 2
    File size : 4.48 GiB
    Duration : 1h 33mn
    Overall bit rate : 6 823 Kbps
    Encoded date : UTC 2016-02-09 13:49:16
    Writing application : mkvmerge v8.8.0 ('Wind at my back') 64bit
    Writing library : libebml v1.3.3 + libmatroska v1.4.4
    DURATION : 01:33:58.720000000
    NUMBER_OF_FRAMES : 176210
    NUMBER_OF_BYTES : 135329280
    _STATISTICS_WRITING_APP : mkvmerge v8.8.0 ('Wind at my back') 64bit
    _STATISTICS_WRITING_DATE_UT : 2016-02-09 13:49:16
    _STATISTICS_TAGS : BPS DURATION NUMBER_OF_FRAMES NUMBER_OF_BYTES
    Video
    ID : 1
    Format : AVC
    Format/Info : Advanced Video Codec
    Format profile : High@L4.1
    Format settings, CABAC : Yes
    Format settings, ReFrames : 5 frames
    Codec ID : V_MPEG4/ISO/AVC
    Duration : 1h 33mn
    Bit rate : 5 120 Kbps
    Width : 1 280 pixels
    Height : 720 pixels
    Display aspect ratio : 16:9
    Frame rate mode : Constant
    Frame rate : 23.976 fps
    Color space : YUV
    Chroma subsampling : 4:2:0
    Bit depth : 8 bits
    Scan type : Progressive
    Bits/(Pixel*Frame) : 0.232
    Stream size : 3.27 GiB (73%)
    Writing library : x264 core 148 r2638 7599210
    Encoding settings : cabac=1 / ref=5 / deblock=1:0:0 / analyse=0x3:0x113 / me=umh / subme=8 / psy=1 / psy_rd=1.00:0.00 / mixed_ref=1 / me_range=16 / chroma_me=1 / trellis=1 / 8x8dct=1 / cqm=0 / deadzone=21,11 / fast_pskip=1 / chroma_qp_offset=-2 / threads=12 / lookahead_threads=2 / sliced_threads=0 / nr=0 / decimate=1 / interlaced=0 / bluray_compat=0 / constrained_intra=0 / bframes=3 / b_pyramid=2 / b_adapt=2 / b_bias=0 / direct=3 / weightb=1 / open_gop=0 / weightp=2 / keyint=240 / keyint_min=23 / scenecut=40 / intra_refresh=0 / rc_lookahead=50 / rc=2pass / mbtree=1 / bitrate=5120 / ratetol=1.0 / qcomp=0.60 / qpmin=0 / qpmax=69 / qpstep=4 / cplxblur=20.0 / qblur=0.5 / vbv_maxrate=62500 / vbv_bufsize=78125 / nal_hrd=none / filler=0 / ip_ratio=1.40 / aq=1:1.00
    Language : English
    Default : Yes
    Forced : No
    Audio #1
    ID : 2
    Format : AC-3
    Format/Info : Audio Coding 3
    Mode extension : CM (complete main)
    Format settings, Endianness : Big
    Codec ID : A_AC3
    Duration : 1h 33mn
    Bit rate mode : Constant
    Bit rate : 192 Kbps
    Channel(s) : 2 channels
    Channel positions : Front: L R
    Sampling rate : 48.0 KHz
    Compression mode : Lossy
    Stream size : 129 MiB (3%)
    Title : СВ-Кадр
    Language : Russian
    Default : Yes
    Forced : No
    Audio #2
    ID : 3
    Format : DTS
    Format/Info : Digital Theater Systems
    Mode : 16
    Format settings, Endianness : Big
    Codec ID : A_DTS
    Duration : 1h 33mn
    Bit rate mode : Constant
    Bit rate : 1 509 Kbps
    Channel(s) : 2 channels
    Channel positions : Front: L R
    Sampling rate : 48.0 KHz
    Bit depth : 24 bits
    Compression mode : Lossy
    Stream size : 1 014 MiB (22%)
    Language : English
    Default : No
    Forced : No
    Text
    ID : 4
    Format : UTF-8
    Codec ID : S_TEXT/UTF8
    Codec ID/Info : UTF-8 Plain Text
    Language : English
    Default : No
    Forced : No
    Menu
    00:00:00.000 : en:00:00:00.000
    00:05:13.230 : en:00:05:13.230
    00:08:46.776 : en:00:08:46.776
    00:11:59.385 : en:00:11:59.385
    00:16:15.725 : en:00:16:15.725
    00:20:08.374 : en:00:20:08.374
    00:25:01.667 : en:00:25:01.667
    00:27:14.758 : en:00:27:14.758
    00:29:36.191 : en:00:29:36.191
    00:35:25.290 : en:00:35:25.290
    00:38:25.094 : en:00:38:25.094
    00:40:34.849 : en:00:40:34.849
    00:44:26.414 : en:00:44:26.414
    00:49:11.407 : en:00:49:11.407
    00:52:34.735 : en:00:52:34.735
    00:57:30.072 : en:00:57:30.072
    01:02:02.844 : en:01:02:02.844
    01:06:47.253 : en:01:06:47.253
    01:12:12.453 : en:01:12:12.453
    01:16:53.526 : en:01:16:53.526
    01:21:17.831 : en:01:21:17.831
    01:25:09.688 : en:01:25:09.688
    01:27:25.449 : en:01:27:25.449
    01:29:51.052 : en:01:29:51.052
    01:31:24.896 : en:01:31:24.896

    Скриншоты

    Скачать .torrent

    Скачать торрент-файл бесплатно и на максимальной скорости!

    Как скачивать? · Что такое торрент? · Рейтинг и ограничения

    !ВНИМАНИЕ!
    Сайт не распространяет и не хранит электронные версии произведений, а занимается лишь лишь предоставлением доступа к создаваемому пользователями каталогу ссылок на торрент-файлы, которые содержат только списки хеш-сумм, убедительная просьба с жалобами обращаться напрямую к пользователю. Файлы для обмена на трекере предоставлены пользователями сайта, и администрация не несёт ответственности за их содержание. Просьба не заливать файлы, защищенные авторскими правами, а также файлы нелегального содержания!


    _________________
    [Профиль] [ЛС]
    Показать сообщения:    
    Ответить на тему

    Текущее время: Сегодня, в 20:35

    Часовой пояс: GMT + 2



    Вы не можете начинать темы
    Вы не можете отвечать на сообщения
    Вы не можете редактировать свои сообщения
    Вы не можете удалять свои сообщения
    Вы не можете голосовать в опросах
    Вы не можете прикреплять файлы к сообщениям
    Вы не можете скачивать файлы