BitTorrentTracker PerecTracker.org
BitTorrentTracker PerecTracker.org
    
Регистрация  ·  Вход
 
 · 
Забыли пароль?

  • Спящий лагерь 2 / Sleepaway Camp II: Unhappy Campers (Майкл А. Симпсон / Michael A. Simpson) [1988, США, ужасы, триллер, слэшер, BDRemux 1080p] MVO (R5) + AVO (С.Кузнецов) + Sub Eng + Original Eng

    Ответить на тему
     
    Автор Сообщение

    Flirldrerve

    Создавать темы 11-Фев-2016 00:48

           

    [Цитировать]

    -Спящий лагерь 2 / Sleepaway Camp II: Unhappy Campers-Страна: США
    Жанр: ужасы, триллер, слэшер
    Год выпуска: 1988
    Продолжительность: 01:20:06-Перевод: Профессиональный (многоголосый закадровый) R5
    Перевод 2: Авторский (одноголосый закадровый) С.Кузнецов
    Cубтитры: английские
    Оригинальная аудиодорожка: английский-Режиссер: Майкл А. Симпсон / Michael A. Simpson
    В ролях: Памела Спрингстин, Рене Эстевез, Тони Хиггинс, Валери Хартман, Брайан Патрик Кларк, Уолтер Готелл, Сьюзан Мари Снайдер, Терри Хоббс, Кендалл Бин, Джули Мерфи-Описание: Опасный маньяк, освобожденный из психиатрической лечебницы и признанный вылечившимся пациентом, приезжает в летний лагерь Роллинг Хиллз, где начинает убивать подростков, которые, по мнению злодея, плоховато себя ведут…-Сэмпл: https://yadi.sk/d/ZmXrHGhkoa6jD-Тип релиза: BDRemux 1080p
    Контейнер: MKV
    Видео: MPEG-4 AVC Video / 36000 kbps / 1080p / 23.976 fps / 16:9 / High Profile 4.1
    Аудио: Russian / Dolby Digital Audio / 2.0 / 48 kHz / 192 kbps |Многоголосый закадровый, R5|
    Аудио 2: English / DTS-HD Master Audio / 2.0 / 48 kHz / 2084 kbps / 24-bit (DTS Core: 2.0 / 48 kHz / 1509 kbps / 24-bit) |Одноголосый закадровый, С.Кузнецов|
    Аудио 3: English / DTS-HD Master Audio / 2.0 / 48 kHz / 2071 kbps / 24-bit (DTS Core: 2.0 / 48 kHz / 1509 kbps / 24-bit)
    Аудио 4: English / Dolby Digital Audio / 2.0 / 48 kHz / 448 kbps |Commentary|
    Формат субтитров: softsub (SRT)

    MI

    GeneralUnique ID : 242632772497424452298351606345596626934 (0xB6895F48C712F7038A4B9AA3BEF767F6)Complete name : P:\Слэшеры\Спящий лагерь 2 (1988. Sleepaway Camp II. Unhappy Campers).mkvFormat : MatroskaFormat version : Version 2File size : 22.0 GiBDuration : 1h 20mnOverall bit rate mode : VariableOverall bit rate : 39.3 MbpsMovie name : Release for RuTrackerEncoded date : UTC 2016-02-09 17:54:51Writing application : mkvmerge v4.9.1 ('Ich will') сборка от Jul 11 2011 23:53:15Writing library : libebml v1.2.1 + libmatroska v1.1.1
    VideoID : 1Format : AVCFormat/Info : Advanced Video CodecFormat profile : High@L4.1Format settings, CABAC : YesFormat settings, ReFrames : 4 framesCodec ID : V_MPEG4/ISO/AVCDuration : 1h 20mnBit rate mode : ConstantNominal bit rate : 36.0 MbpsWidth : 1 920 pixelsHeight : 1 080 pixelsDisplay aspect ratio : 16:9Frame rate mode : ConstantFrame rate : 23.976 fpsColor space : YUVChroma subsampling : 4:2:0Bit depth : 8 bitsScan type : ProgressiveBits/(Pixel*Frame) : 0.724Language : EnglishDefault : YesForced : No
    Audio #1ID : 2Format : AC-3Format/Info : Audio Coding 3Mode extension : CM (complete main)Format settings, Endianness : BigCodec ID : A_AC3Duration : 1h 20mnBit rate mode : ConstantBit rate : 192 KbpsChannel(s) : 2 channelsChannel positions : Front: L RSampling rate : 48.0 KHzBit depth : 16 bitsCompression mode : LossyStream size : 110 MiB (0%)Title : MVO [R5]Language : RussianDefault : NoForced : No
    Audio #2ID : 3Format : DTSFormat/Info : Digital Theater SystemsFormat profile : MA / CoreMode : 16Format settings, Endianness : BigCodec ID : A_DTSDuration : 1h 20mnBit rate mode : VariableBit rate : Unknown / 1 509 KbpsChannel(s) : 2 channelsChannel positions : Front: L RSampling rate : 48.0 KHzBit depth : 24 bitsCompression mode : Lossless / LossyTitle : Сергей КузнецовLanguage : RussianDefault : NoForced : No
    Audio #3ID : 4Format : DTSFormat/Info : Digital Theater SystemsFormat profile : MA / CoreMode : 16Format settings, Endianness : BigCodec ID : A_DTSDuration : 1h 20mnBit rate mode : VariableBit rate : Unknown / 1 509 KbpsChannel(s) : 2 channelsChannel positions : Front: L RSampling rate : 48.0 KHzBit depth : 24 bitsCompression mode : Lossless / LossyLanguage : EnglishDefault : NoForced : No
    Audio #4ID : 5Format : AC-3Format/Info : Audio Coding 3Mode extension : CM (complete main)Format settings, Endianness : BigCodec ID : A_AC3Duration : 1h 20mnBit rate mode : ConstantBit rate : 448 KbpsChannel(s) : 2 channelsChannel positions : Front: L RSampling rate : 48.0 KHzBit depth : 16 bitsCompression mode : LossyStream size : 257 MiB (1%)Title : CommentaryLanguage : EnglishDefault : NoForced : No
    TextID : 6Format : UTF-8Codec ID : S_TEXT/UTF8Codec ID/Info : UTF-8 Plain TextLanguage : EnglishDefault : YesForced : No
    Menu00:00:00.000 : en:00:00:00.00000:06:33.018 : en:00:06:33.01800:13:05.785 : en:00:13:05.78500:20:07.206 : en:00:20:07.20600:25:24.148 : en:00:25:24.14800:32:16.935 : en:00:32:16.93500:38:37.315 : en:00:38:37.31500:43:51.629 : en:00:43:51.62900:50:58.055 : en:00:50:58.05500:57:59.101 : en:00:57:59.10101:04:07.844 : en:01:04:07.84401:13:06.007 : en:01:13:06.007
    Скриншоты

    Зеркало


    Цитата:
    Цитата:

    • Релиз . Спасибо Spiellberg!
    • Дорожка №2 получена путем наложения чистого голоса на L,R каналы оригинального DTS-HD MA.
    • Сохранены оригинальные чаптеры как на Blu-ray.
    Скачать .torrent

    Скачать торрент-файл бесплатно и на максимальной скорости!

    Как скачивать? · Что такое торрент? · Рейтинг и ограничения

    !ВНИМАНИЕ!
    Сайт не распространяет и не хранит электронные версии произведений, а занимается лишь лишь предоставлением доступа к создаваемому пользователями каталогу ссылок на торрент-файлы, которые содержат только списки хеш-сумм, убедительная просьба с жалобами обращаться напрямую к пользователю. Файлы для обмена на трекере предоставлены пользователями сайта, и администрация не несёт ответственности за их содержание. Просьба не заливать файлы, защищенные авторскими правами, а также файлы нелегального содержания!


    _________________
    [Профиль] [ЛС]
    Показать сообщения:    
    Ответить на тему

    Текущее время: Сегодня, в 18:05

    Часовой пояс: GMT + 2



    Вы не можете начинать темы
    Вы не можете отвечать на сообщения
    Вы не можете редактировать свои сообщения
    Вы не можете удалять свои сообщения
    Вы не можете голосовать в опросах
    Вы не можете прикреплять файлы к сообщениям
    Вы не можете скачивать файлы