BitTorrentTracker PerecTracker.org
BitTorrentTracker PerecTracker.org
    
Регистрация  ·  Вход
 
 · 
Забыли пароль?

  • [ATV3] Стажёр / The Intern (Нэнси Майерс / Nancy Meyers ) [2015, США, Мелодрама, комедия, BDRip, HD (1080p)] DUB + Original + sub (rus, eng)

    Ответить на тему
     
    Автор Сообщение

    Flirldrerve

    Создавать темы 10-Фев-2016 20:36

           

    [Цитировать]

    Стажёр / The Intern
    «Опыт всегда в моде»
    7.569 / 10 7.20 / 10
    -Год выпуска: 2015
    Страна: США
    Жанр: Мелодрама, комедия
    Продолжительность: 02:01:31
    Перевод: Дублированный (Blu-ray CEE)
    Оригинальная аудиодорожка: Есть
    Cубтитры: Русские форсированные, Русские, Английские
    Режиссёр: Нэнси Майерс
    Сценарий: Нэнси Майерс
    Продюсер: Нэнси Майерс, Селия Д. Костас, Deb Dyer
    Оператор: Стивен Голдблатт
    Композитор: Теодор Шапиро
    Художник: Кристи Зиа, В. Стивен Грэхэм, Даг Хусти
    Монтаж: Роберт Лейтон
    В ролях: Роберт Де Ниро, Энн Хэтэуэй, Рене Руссо, Андерс Холм, ДжоДжо Кушнер, Эндрю Рэннеллс, Адам Дивайн, Зак Перлман, Джейсон Орли, Кристина Шерер
    Бюджет: $35 000 000
    Сборы в США: $75 764 672
    Сборы в России: $4 649 340
    Мировая премьера: 15 сентября 2015
    Премьера (РФ): 24 сентября 2015, «Каро-Премьер»
    Релиз на DVD: 31 декабря 2015, «CP Дистрибуция»
    Релиз на Blu-Ray: 31 декабря 2015, «CP Дистрибуция»
    Описание: 70-летний вдовец Бен Уитакер обнаруживает, что выход на пенсию — еще не конец. Пользуясь случаем, он становится старшим стажером в интернет-магазине модной одежды под руководством Джулс Остин.-Качество исходника: BDRemux (HDClub)
    Качество: BDRip
    Тип: HD (1080p)
    Контейнер: M4V
    Видео: H.264, 1920x1080, 16:9, 9 700 Kbps, 23.976 (24000/1001) fps
    Аудио 1: Русский/Дублированный (Blu-ray CEE), AAC / 2.0 / 156 Kbps / 48.0 KHz
    Аудио 2: Английский/Оригинальная дорожка , AAC / 2.0 / 153 Kbps / 48.0 KHz
    Аудио 3: Украинский/Дублированный (iTunes), AAC / 2.0 / 154 Kbps / 44.1 KHz
    Аудио 4: Русский/Дублированный (Blu-ray CEE), AC-3 / 5.1 / 640 Kbps / 48.0 KHz
    Аудио 5: Английский/Оригинальная дорожка , AC-3 / 5.1 / 640 Kbps / 48.0 KHz
    Субтитры 1: Русские форсированные
    Субтитры 2: Русские полные
    Субтитры 3: Английские полные
    -

    iTunes Meta Tags

    Sort Name: Intern
    XID: Apple:vendor_id:2015-677893
    contentID: 1041445878
    Copyright: © 2015 Warner Bros. Entertainment Inc. and RatPac-Dune Entertainment LLC. All Rights Reserved.
    Screenwriters: Нэнси Майерс
    Producers: Сюзанн МакНейлл Фаруелл, Нэнси Майерс, Селия Д. Костас
    Director: Нэнси Майерс
    Cast: Роберт Де Ниро, Энн Хэтэуэй, Рене Руссо, Андерс Холм, ДжоДжо Кушнер, Эндрю Рэннеллс, Адам Дивайн, Илан Кригсфелд, Зак Перлман, Джейсон Орли
    Studio: Warner Bros.
    Rating Annotation: Rated PG-13 for some suggestive content and brief strong language.
    Rating: 4
    Long Description: 70-летний вдовец Бен Уитакер обнаруживает, что выход на пенсию - еще не конец. Пользуясь случаем, он становится старшим стажером в интернет-магазине модной одежды под руководством Джулс Остин.
    Description: 70-летний вдовец Бен Уитакер обнаруживает, что выход на пенсию - еще не конец. Пользуясь случаем, он становится старшим стажером в интернет-магазине модной одежды под руководством Джулс Остин.
    Release Date: 2015-09-15T08:00:00Z
    Genre: Comedy
    Artist: Nancy Meyers
    Name: The Intern

    MediaInfo

    General
    Complete name : /Users/imac/HandBrake/The Intern (1080p HD).m4v
    Format : MPEG-4
    Codec ID : M4V  (M4V /M4A /mp42/isom)
    File size : 9.71 GiB
    Duration : 2h 1mn
    Overall bit rate mode : Variable
    Overall bit rate : 11.4 Mbps
    Movie name : The Intern
    Performer : Nancy Meyers
    Director : Нэнси Майерс
    Actor : Роберт Де Ниро / Энн Хэтэуэй / Рене Руссо / Андерс Холм / ДжоДжо Кушнер / Эндрю Рэннеллс / Адам Дивайн / Илан Кригсфелд / Зак Перлман / Джейсон Орли
    Screenplay by : Нэнси Майерс
    Producer : Сюзанн МакНейлл Фаруелл / Нэнси Майерс / Селия Д. Костас
    Production studio : Warner Bros.
    Genre : Comedy
    ContentType : Short Film
    Description : 70-летний вдовец Бен Уитакер обнаруживает, что выход на пенсию - еще не конец. Пользуясь случаем, он становится старшим стажером в интернет-магазине модной одежды под руководством Джулс Остин.
    Recorded date : UTC 2015-09-15 08:00:00
    Encoded date : UTC 2016-02-10 12:39:29
    Tagged date : UTC 2016-02-10 12:42:24
    Copyright : © 2015 Warner Bros. Entertainment Inc. and RatPac-Dune Entertainment LLC. All Rights Reserved.
    Cover : Yes
    Rating : None
    Title/Sort : Intern
    LongDescription : 70-летний вдовец Бен Уитакер обнаруживает, что выход на пенсию - еще не конец. Пользуясь случаем, он становится старшим стажером в интернет-магазине модной одежды под руководством Джулс Остин.
    AppleStoreCatalogID : 1041445878
    Vendor : Apple:vendor_id:2015-677893
    ContentRating : mpaa|PG-13|300|Rated PG-13 for some suggestive content and brief strong language.
    Video #1
    ID : 1
    Format : AVC
    Format/Info : Advanced Video Codec
    Format profile : High@L4
    Format settings, CABAC : Yes
    Format settings, ReFrames : 4 frames
    Codec ID : avc1
    Codec ID/Info : Advanced Video Coding
    Duration : 2h 1mn
    Source duration : 2h 1mn
    Bit rate : 9 700 Kbps
    Width : 1 920 pixels
    Height : 1 080 pixels
    Display aspect ratio : 16:9
    Frame rate mode : Variable
    Frame rate : 23.976 (24000/1001) fps
    Minimum frame rate : 23.974 fps
    Maximum frame rate : 23.981 fps
    Color space : YUV
    Chroma subsampling : 4:2:0
    Bit depth : 8 bits
    Scan type : Progressive
    Bits/(Pixel*Frame) : 0.195
    Stream size : 8.22 GiB (85%)
    Source stream size : 8.22 GiB (85%)
    Title : Main Program
    Writing library : x264 core 142 r2479 dd79a61
    Encoding settings : cabac=1 / ref=4 / deblock=1:-2:-2 / analyse=0x3:0x133 / me=umh / subme=10 / psy=1 / psy_rd=1.00:0.15 / mixed_ref=1 / me_range=32 / chroma_me=1 / trellis=2 / 8x8dct=1 / cqm=0 / deadzone=21,11 / fast_pskip=0 / chroma_qp_offset=-3 / threads=36 / lookahead_threads=8 / sliced_threads=0 / nr=0 / decimate=0 / interlaced=0 / bluray_compat=0 / constrained_intra=0 / bframes=16 / b_pyramid=2 / b_adapt=2 / b_bias=0 / direct=3 / weightb=1 / open_gop=0 / weightp=2 / keyint=240 / keyint_min=24 / scenecut=40 / intra_refresh=0 / rc_lookahead=60 / rc=2pass / mbtree=1 / bitrate=9700 / ratetol=1.0 / qcomp=0.70 / qpmin=0 / qpmax=69 / qpstep=4 / cplxblur=20.0 / qblur=0.5 / vbv_maxrate=25000 / vbv_bufsize=25000 / nal_hrd=none / filler=0 / ip_ratio=1.40 / aq=1:1.00
    Language : English
    Encoded date : UTC 2016-02-10 12:39:29
    Tagged date : UTC 2016-02-10 12:39:44
    Color range : Limited
    Color primaries : BT.709
    Transfer characteristics : BT.709
    Matrix coefficients : BT.709
    Menus : 10,11
    Video #2
    ID : 11
    Format : JPEG
    Codec ID : jpeg
    Duration : 2h 1mn
    Bit rate mode : Variable
    Bit rate : 958 bps
    Width : 640 pixels
    Height : 360 pixels
    Display aspect ratio : 16:9
    Frame rate mode : Variable
    Frame rate : 0.002 fps
    Minimum frame rate : 0.001 fps
    Maximum frame rate : 0.003 fps
    Color space : YUV
    Chroma subsampling : 4:2:0
    Bit depth : 8 bits
    Compression mode : Lossy
    Bits/(Pixel*Frame) : 2.079
    Stream size : 760 KiB (0%)
    Title : Chapter Images
    Default : No
    Encoded date : UTC 2016-02-10 12:39:51
    Tagged date : UTC 2016-02-10 12:39:52
    Menu For : 1
    Audio #1
    ID : 2
    Format : AAC
    Format/Info : Advanced Audio Codec
    Format profile : LC
    Codec ID : 40
    Duration : 2h 1mn
    Bit rate mode : Variable
    Bit rate : 156 Kbps
    Maximum bit rate : 267 Kbps
    Channel(s) : 2 channels
    Channel positions : Front: L R
    Sampling rate : 48.0 KHz
    Frame rate : 46.875 fps (1024 spf)
    Compression mode : Lossy
    Stream size : 136 MiB (1%)
    Title : Russian Stereo
    Language : Russian
    Default : Yes
    Alternate group : 1
    Encoded date : UTC 2016-02-10 12:39:29
    Tagged date : UTC 2016-02-10 12:39:44
    Fallback From : 5
    Subtitles : 7,8
    Menus : 10
    Audio #2
    ID : 3
    Format : AAC
    Format/Info : Advanced Audio Codec
    Format profile : LC
    Codec ID : 40
    Duration : 2h 1mn
    Bit rate mode : Variable
    Bit rate : 153 Kbps
    Maximum bit rate : 253 Kbps
    Channel(s) : 2 channels
    Channel positions : Front: L R
    Sampling rate : 48.0 KHz
    Frame rate : 46.875 fps (1024 spf)
    Compression mode : Lossy
    Stream size : 133 MiB (1%)
    Title : English Stereo
    Language : English
    Default : No
    Alternate group : 1
    Encoded date : UTC 2016-02-10 12:39:29
    Tagged date : UTC 2016-02-10 12:39:44
    Fallback From : 6
    Audio #3
    ID : 4
    Format : AAC
    Format/Info : Advanced Audio Codec
    Format profile : LC
    Codec ID : 40
    Duration : 2h 1mn
    Bit rate mode : Variable
    Bit rate : 154 Kbps
    Maximum bit rate : 301 Kbps
    Channel(s) : 2 channels
    Channel positions : Front: L R
    Sampling rate : 44.1 KHz
    Frame rate : 43.066 fps (1024 spf)
    Compression mode : Lossy
    Stream size : 134 MiB (1%)
    Title : Ukrainian Stereo
    Language : Ukrainian
    Default : No
    Alternate group : 1
    Encoded date : UTC 2016-02-10 12:39:29
    Tagged date : UTC 2016-02-10 12:39:42
    Audio #4
    ID : 5
    Format : AC-3
    Format/Info : Audio Coding 3
    Mode extension : CM (complete main)
    Format settings, Endianness : Big
    Codec ID : ac-3
    Duration : 2h 1mn
    Bit rate mode : Constant
    Bit rate : 640 Kbps
    Channel(s) : 6 channels
    Channel positions : Front: L C R, Side: L R, LFE
    Sampling rate : 48.0 KHz
    Frame rate : 31.250 fps (1536 spf)
    Bit depth : 16 bits
    Compression mode : Lossy
    Stream size : 556 MiB (6%)
    Title : Russian DD 5.1
    Language : Russian
    Default : Inherited From: 2
    Alternate group : 1
    Encoded date : UTC 2016-02-10 12:39:29
    Tagged date : UTC 2016-02-10 12:39:44
    Fallback To : 2
    Subtitles : 7,8
    Audio #5
    ID : 6
    Format : AC-3
    Format/Info : Audio Coding 3
    Mode extension : CM (complete main)
    Format settings, Endianness : Big
    Codec ID : ac-3
    Duration : 2h 1mn
    Bit rate mode : Constant
    Bit rate : 640 Kbps
    Channel(s) : 6 channels
    Channel positions : Front: L C R, Side: L R, LFE
    Sampling rate : 48.0 KHz
    Frame rate : 31.250 fps (1536 spf)
    Bit depth : 16 bits
    Compression mode : Lossy
    Stream size : 556 MiB (6%)
    Title : English DD 5.1
    Language : English
    Default : No
    Alternate group : 1
    Encoded date : UTC 2016-02-10 12:39:29
    Tagged date : UTC 2016-02-10 12:39:44
    Fallback To : 3
    Text #1
    ID : 7
    Format : Timed Text
    Muxing mode : sbtl
    Codec ID : tx3g
    Duration : 1h 26mn
    Bit rate mode : Variable
    Bit rate : 2 bps
    Stream size : 1 001 Bytes (0%)
    Title : Russian forced
    Language : Russian
    Default : Yes
    Forced : Yes
    Alternate group : 2
    Encoded date : UTC 2016-02-10 12:39:29
    Tagged date : UTC 2016-02-10 12:39:39
    Subtitles For : 2,5
    Full Alternative : 8
    Text #2
    ID : 8
    Format : Timed Text
    Muxing mode : sbtl
    Codec ID : tx3g
    Duration : 1h 56mn
    Bit rate mode : Variable
    Bit rate : 145 bps
    Stream size : 124 KiB (0%)
    Title : Russian full
    Language : Russian
    Default : No
    Forced : No
    Alternate group : 2
    Encoded date : UTC 2016-02-10 12:39:29
    Tagged date : UTC 2016-02-10 12:39:43
    Subtitles For : 2,5
    Forced Alternative : 7
    Text #3
    ID : 9
    Format : Timed Text
    Muxing mode : sbtl
    Codec ID : tx3g
    Duration : 1h 56mn
    Bit rate mode : Variable
    Bit rate : 96 bps
    Stream size : 81.8 KiB (0%)
    Title : English full
    Language : English
    Default : No
    Forced : No
    Alternate group : 2
    Encoded date : UTC 2016-02-10 12:39:29
    Tagged date : UTC 2016-02-10 12:39:43
    Menu #1
    00:00:00.000 : Chapter 1
    00:09:30.570 : Chapter 2
    00:19:55.444 : Chapter 3
    00:30:30.037 : Chapter 4
    00:41:18.518 : Chapter 5
    00:50:18.766 : Chapter 6
    01:00:34.130 : Chapter 7
    01:10:19.132 : Chapter 8
    01:19:16.543 : Chapter 9
    01:30:59.996 : Chapter 10
    01:42:48.579 : Chapter 11
    01:51:11.290 : Chapter 12
    01:56:42.078 : Chapter 13
    Menu #2
    ID : 10
    Codec ID : text
    Duration : 2h 1mn
    Language : English
    Encoded date : UTC 2016-02-10 12:39:44
    Tagged date : UTC 2016-02-10 12:39:44
    Menu For : 2,1
    00:00:00.000 : Chapter 1
    00:09:30.570 : Chapter 2
    00:19:55.444 : Chapter 3
    00:30:30.037 : Chapter 4
    00:41:18.518 : Chapter 5
    00:50:18.766 : Chapter 6
    01:00:34.130 : Chapter 7
    01:10:19.132 : Chapter 8
    01:19:16.543 : Chapter 9
    01:30:59.996 : Chapter 10
    01:42:48.579 : Chapter 11
    01:51:11.290 : Chapter 12
    01:56:42.078 : Chapter 13
    Bit rate mode : VBR

    x264 лог

    x264 [info]: frame I:1403  Avg QP:19.07  size:257362
    x264 [info]: frame P:45138 Avg QP:21.98  size: 90171
    x264 [info]: frame B:128291 Avg QP:23.18  size: 34268
    x264 [info]: consecutive B-frames:  1.8%  6.0%  4.3% 70.3%  5.0%  4.1%  3.6%  4.4%  0.1%  0.0%  0.0%  0.0%  0.0%  0.0%  0.0%  0.1%  0.2%
    x264 [info]: mb I  I16..4:  4.3% 84.9% 10.9%
    x264 [info]: mb P  I16..4:  0.8% 11.8%  0.6%  P16..4: 48.4% 19.7% 11.8%  0.3%  0.1%    skip: 6.5%
    x264 [info]: mb B  I16..4:  0.0%  0.8%  0.0%  B16..8: 52.5%  8.7%  2.0%  direct: 5.2%  skip:30.8%  L0:46.1% L1:45.6% BI: 8.3%
    x264 [info]: 8x8 transform intra:88.4% inter:70.9%
    x264 [info]: direct mvs  spatial:98.1% temporal:1.9%
    x264 [info]: coded y,uvDC,uvAC intra: 90.3% 87.8% 64.9% inter: 33.4% 37.6% 11.4%
    x264 [info]: i16 v,h,dc,p: 40% 18%  8% 34%
    x264 [info]: i8 v,h,dc,ddl,ddr,vr,hd,vl,hu: 12%  8% 12%  9% 13% 12% 12% 11% 12%
    x264 [info]: i4 v,h,dc,ddl,ddr,vr,hd,vl,hu: 16% 11%  3%  8% 13% 14% 13% 10% 12%
    x264 [info]: i8c dc,h,v,p: 50% 18% 17% 15%
    x264 [info]: Weighted P-Frames: Y:1.0% UV:0.4%
    x264 [info]: ref P L0: 54.0% 13.2% 24.1%  8.5%  0.3%  0.0%
    x264 [info]: ref B L0: 90.4%  8.0%  1.6%
    x264 [info]: ref B L1: 95.4%  4.6%
    x264 [info]: kb/s:9684.64

    Скриншоты

    -

    Релиз подготовлен для просмотра на Apple TV, iPad, iPhone, iPod Touch.
    Для просмотра данного релиза на компьютере с ОС Windows рекомендуется использовать VLC media player
    Скачать .torrent

    Скачать торрент-файл бесплатно и на максимальной скорости!

    Как скачивать? · Что такое торрент? · Рейтинг и ограничения

    !ВНИМАНИЕ!
    Сайт не распространяет и не хранит электронные версии произведений, а занимается лишь лишь предоставлением доступа к создаваемому пользователями каталогу ссылок на торрент-файлы, которые содержат только списки хеш-сумм, убедительная просьба с жалобами обращаться напрямую к пользователю. Файлы для обмена на трекере предоставлены пользователями сайта, и администрация не несёт ответственности за их содержание. Просьба не заливать файлы, защищенные авторскими правами, а также файлы нелегального содержания!


    _________________
    [Профиль] [ЛС]
    Показать сообщения:    
    Ответить на тему

    Текущее время: Сегодня, в 22:11

    Часовой пояс: GMT + 2



    Вы не можете начинать темы
    Вы не можете отвечать на сообщения
    Вы не можете редактировать свои сообщения
    Вы не можете удалять свои сообщения
    Вы не можете голосовать в опросах
    Вы не можете прикреплять файлы к сообщениям
    Вы не можете скачивать файлы