BitTorrentTracker PerecTracker.org
BitTorrentTracker PerecTracker.org
    
Регистрация  ·  Вход
 
 · 
Забыли пароль?

  • Александр и ужасный, кошмарный, нехороший, очень плохой день / Alexander and the Terrible, Horrible, No Good, Very Bad Day (Мигель Артета / Miguel Arteta) [2014, США, комедия, семейный, BDRip-AVC] Dub (Blu-ray EUR) + Sub Rus, Eng + Original Eng

    Ответить на тему
     
    Автор Сообщение

    rechyn

    Создавать темы 10-Фев-2016 12:15

           

    [Цитировать]

    Александр и ужасный, кошмарный, нехороший, очень плохой день
    Alexander and the Terrible, Horrible, No Good, Very Bad Day
    «А потом всё и случилось...»
    -Страна: США
    Жанр: комедия, семейный
    Год выпуска: 2014
    Продолжительность: 01:21:05
    Перевод: Профессиональный (дублированный) Blu-ray EUR
    Cубтитры: Rus, Eng
    Оригинальная аудиодорожка: английский
    Режиссер: Мигель Артета / Miguel Arteta
    В ролях:
    Стив Карелл | Steve Carell
    Эд Оксенбульд | Ed Oxenbould

    Дженнифер Гарнер, Дилан Миннетт, Кэррис Дорси, Элиз Варгас, Зоя Варгас, Сидни Фуллмер, Белла Торн, Меган Маллалли-ОписаниеУтро для Александра началось ужасно: жвачка, которая еще вечером была у него во рту, теперь запуталась в волосах, вставая с кровати, он поскользнулся на скейтборде и по ошибке бросил свой свитер в раковину, когда там была вода. Уже тогда можно было сказать, что это будет ужасный, страшный, нехороший, очень плохой день. Все валилось из рук и шло совсем не так, как хотелось бы. Что же делать в такой день? Например, можно подумать о путешествии в Австралию. Также можно обнаружить, что день такой плохой не только у тебя…-Сэмпл

    IMDb: 6.20 (26 988)
    Качество видео: BDRip-AVC Alexander.and.the..Good.Very.Bad.Day.2014.1080p.BluRay.AVC.DTS-HD.MA.5.1-RARBG
    Формат видео: MKV
    Видео: AVC 3275 Kbps 1152 x 482 (2.390) 23.976 fps
    Аудио: AC-3 448 Kbps 6 channels, 48.0 KHz Rus
    Аудио 2: AC-3 448 Kbps 6 channels, 48.0 KHz Eng
    Формат субтитров: softsub (SRT)
    MediaInfo | Log

    Log

    x264 [info]: frame I:1240 Avg QP:15.25 size: 90443
    x264 [info]: frame P:27270 Avg QP:16.93 size: 34086
    x264 [info]: frame B:88151 Avg QP:19.11 size: 11397
    x264 [info]: consecutive B-frames: 2.5% 2.9% 10.9% 31.6% 18.4% 26.0% 3.6% 1.0% 0.7% 0.7% 0.4% 0.3% 0.3% 0.3% 0.5%
    x264 [info]: mb I I16..4: 8.4% 68.6% 23.0%
    x264 [info]: mb P I16..4: 1.0% 15.8% 3.1% P16..4: 26.1% 30.6% 12.9% 2.6% 0.3% skip: 7.6%
    x264 [info]: mb B I16..4: 0.2% 2.1% 0.4% B16..8: 31.3% 22.6% 4.5% direct: 6.1% skip:32.8% L0:41.2% L1:41.2% BI:17.5%
    x264 [info]: 8x8 transform intra:77.5% inter:57.1%
    x264 [info]: direct mvs spatial:100.0% temporal:0.0%
    x264 [info]: coded y,uvDC,uvAC intra: 89.4% 93.1% 81.5% inter: 25.4% 26.2% 11.4%
    x264 [info]: i16 v,h,dc,p: 19% 12% 9% 60%
    x264 [info]: i8 v,h,dc,ddl,ddr,vr,hd,vl,hu: 15% 10% 9% 8% 11% 12% 11% 12% 12%
    x264 [info]: i4 v,h,dc,ddl,ddr,vr,hd,vl,hu: 33% 10% 5% 6% 10% 11% 9% 8% 8%
    x264 [info]: i8c dc,h,v,p: 41% 23% 20% 16%
    x264 [info]: Weighted P-Frames: Y:5.8% UV:4.2%
    x264 [info]: ref P L0: 47.4% 12.5% 16.3% 5.7% 4.6% 3.3% 3.5% 1.9% 1.5% 1.1% 1.1% 1.0% 0.2% 0.0%
    x264 [info]: ref B L0: 74.2% 10.9% 5.1% 2.6% 1.8% 1.5% 1.7% 1.0% 0.6% 0.4% 0.2%
    x264 [info]: ref B L1: 93.2% 6.8%
    x264 [info]: kb/s:3364.42
    x264 [total]: encoded 116661 frames, 8.89 fps, 3364.42 kb/s, duration 3:38:46.56
    Format : Matroska
    Format version : Version 4 / Version 2
    File size : 2.42 GiB
    Duration : 1h 21mn
    Overall bit rate : 4 256 Kbps
    Encoded date : UTC 2016-02-08 21:42:02
    Writing application : mkvmerge v6.7.0 ('Back to the Ground') 32bit built on Jan 8 2014 15:03:17
    Writing library : libebml v1.3.0 + libmatroska v1.4.1
    Video
    ID : 1
    Format : AVC
    Format/Info : Advanced Video Codec
    Format profile : High@L4.1
    Format settings, CABAC : Yes
    Format settings, ReFrames : 12 frames
    Codec ID : V_MPEG4/ISO/AVC
    Duration : 1h 21mn
    Bit rate : 3 275 Kbps
    Width : 1 152 pixels
    Height : 482 pixels
    Display aspect ratio : 2.40:1
    Frame rate mode : Constant
    Frame rate : 23.976 fps
    Color space : YUV
    Chroma subsampling : 4:2:0
    Bit depth : 8 bits
    Scan type : Progressive
    Bits/(Pixel*Frame) : 0.246
    Stream size : 1.86 GiB (77%)
    Title : Alexander and the Terrible, Horrible, No Good, Very Bad Day [perectracker.org]
    Writing library : x264 core 144 r2525kMod 40bb568
    Encoding settings : cabac=1 / ref=12 / deblock=1:-2:-1 / analyse=0x3:0x133 / me=umh / subme=11 / psy=1 / fade_compensate=0.00 / psy_rd=1.00:0.05 / mixed_ref=1 / me_range=32 / chroma_me=1 / trellis=2 / 8x8dct=1 / cqm=0 / deadzone=21,11 / fast_pskip=0 / chroma_qp_offset=-3 / threads=12 / lookahead_threads=3 / sliced_threads=0 / nr=0 / decimate=1 / interlaced=0 / bluray_compat=0 / constrained_intra=0 / fgo=0 / bframes=14 / b_pyramid=2 / b_adapt=2 / b_bias=0 / direct=3 / weightb=1 / open_gop=0 / weightp=2 / keyint=250 / keyint_min=23 / scenecut=40 / intra_refresh=0 / rc_lookahead=80 / rc=crf / mbtree=0 / crf=16.8000 / qcomp=0.60 / qpmin=0 / qpmax=69 / qpstep=4 / vbv_maxrate=50000 / vbv_bufsize=62500 / crf_max=0.0 / nal_hrd=none / filler=0 / ip_ratio=1.40 / pb_ratio=1.30 / aq=3:0.90
    Language : English
    Default : Yes
    Forced : No
    Audio #1
    ID : 2
    Format : AC-3
    Format/Info : Audio Coding 3
    Mode extension : CM (complete main)
    Format settings, Endianness : Big
    Codec ID : A_AC3
    Duration : 1h 21mn
    Bit rate mode : Constant
    Bit rate : 448 Kbps
    Channel(s) : 6 channels
    Channel positions : Front: L C R, Side: L R, LFE
    Sampling rate : 48.0 KHz
    Compression mode : Lossy
    Stream size : 260 MiB (11%)
    Title : Dub
    Language : Russian
    Default : Yes
    Forced : No
    Audio #2
    ID : 3
    Format : AC-3
    Format/Info : Audio Coding 3
    Mode extension : CM (complete main)
    Format settings, Endianness : Big
    Codec ID : A_AC3
    Duration : 1h 21mn
    Bit rate mode : Constant
    Bit rate : 448 Kbps
    Channel(s) : 6 channels
    Channel positions : Front: L C R, Side: L R, LFE
    Sampling rate : 48.0 KHz
    Compression mode : Lossy
    Stream size : 260 MiB (11%)
    Title : Original
    Language : English
    Default : No
    Forced : No
    Text #1
    ID : 4
    Format : UTF-8
    Codec ID : S_TEXT/UTF8
    Codec ID/Info : UTF-8 Plain Text
    Title : Forced
    Language : Russian
    Default : Yes
    Forced : No
    Text #2
    ID : 5
    Format : UTF-8
    Codec ID : S_TEXT/UTF8
    Codec ID/Info : UTF-8 Plain Text
    Title : Full
    Language : Russian
    Default : No
    Forced : No
    Text #3
    ID : 6
    Format : UTF-8
    Codec ID : S_TEXT/UTF8
    Codec ID/Info : UTF-8 Plain Text
    Language : English
    Default : No
    Forced : No
    Menu
    00:00:00.000 : en:00:00:00.000
    00:05:51.518 : en:00:05:51.518
    00:15:15.164 : en:00:15:15.164
    00:21:50.726 : en:00:21:50.726
    00:25:10.801 : en:00:25:10.801
    00:33:01.855 : en:00:33:01.855
    00:40:16.289 : en:00:40:16.289
    00:48:23.859 : en:00:48:23.859
    00:55:11.016 : en:00:55:11.016
    01:05:44.190 : en:01:05:44.190
    01:10:12.750 : en:01:10:12.750
    01:14:43.229 : en:01:14:43.229

    Скриншоты





    Скачать .torrent

    Скачать торрент-файл бесплатно и на максимальной скорости!

    Как скачивать? · Что такое торрент? · Рейтинг и ограничения

    !ВНИМАНИЕ!
    Сайт не распространяет и не хранит электронные версии произведений, а занимается лишь лишь предоставлением доступа к создаваемому пользователями каталогу ссылок на торрент-файлы, которые содержат только списки хеш-сумм, убедительная просьба с жалобами обращаться напрямую к пользователю. Файлы для обмена на трекере предоставлены пользователями сайта, и администрация не несёт ответственности за их содержание. Просьба не заливать файлы, защищенные авторскими правами, а также файлы нелегального содержания!


    _________________
    [Профиль] [ЛС]
    Показать сообщения:    
    Ответить на тему

    Текущее время: Сегодня, в 04:21

    Часовой пояс: GMT + 2



    Вы не можете начинать темы
    Вы не можете отвечать на сообщения
    Вы не можете редактировать свои сообщения
    Вы не можете удалять свои сообщения
    Вы не можете голосовать в опросах
    Вы не можете прикреплять файлы к сообщениям
    Вы не можете скачивать файлы