BitTorrentTracker PerecTracker.org
BitTorrentTracker PerecTracker.org
    
Регистрация  ·  Вход
 
 · 
Забыли пароль?

  • Новогодний рейс / Серии: 1-4 из 4 (Нана Джорджадзе) [2014, мелодрама, HDTV (1080i)]

    Ответить на тему
     
    Автор Сообщение

    rechyn

    Создавать темы 09-Фев-2016 14:29

           

    [Цитировать]

    Новогодний рейс--Год выпуска: 2014
    Производство: Кинокомпания «Джи Пи»
    Жанр: мелодрама
    Продолжительность: 00:50:00
    Субтитры: нет-Режиссёр: Нана Джорджадзе-В ролях:
    Оксана Фандера, Светлана Ходченкова, Марат Башаров, Сергей Чонишвили, Дмитрий Миллер, Олег Долин, Ирина Гринёва,
    Мария Антонова, Любовь Аксёнова, Эльвира Волошина, Елена Папанова, Илья Ермолов, Мария Петровская, Максим Браматкин-Описание:
    Новый год бывшая рок-певица, а ныне почтенная домохозяйка Вера Павловская собирается встречать в одиночестве. Ее муж, известный кинорежиссер Сергей Павловский, «улетел на досъемки», а на самом деле — к юной любовнице. Известной журналистке Стефании (Фане) предстоит провести праздничную ночь в обществе родителей своего жениха — положительного, милого, но нелюбимого Пети. Питерский архитектор Сергей Скворцов летит в Москву, чтобы соединиться со своей невестой Лорой. А юная библиотекарша из Питера Бронислава мечтает добиться любви Олега — сына Павловских, несмотря на то, что Олег счастливо и прочно женат. Однако, предновогодняя суета и неразбериха рушит все эти планы.-Все раздачи сериала-Возраст: 12+--Качество: HDTV (1080i)
    Формат: TS
    Видео кодек: AVC
    Аудио кодек: AC3, MP2

    Видео: AVC, 1920 х 1080 (16:9), 25,000 кадр/сек, 5 205 Кбит/сек, 0.100 bit/pixel
    Аудио 1: AC3, 48000 Hz, 384 Kbps, 2 канала
    Аудио 2: MP2, 48000 Hz, 192 Kbps, 2 канала
    -

    MediaInfo

    General
    ID : 1 (0x1)
    Complete name : D:\Раздачи\Новогодний рейс (1-4 серия из 4) HDTV (1080i)\Novogodnij rejs.02.HDTV(1080i).GeneralFilm.ts
    Format : MPEG-TS
    File size : 2.14 GiB
    Duration : 50mn 23s
    Overall bit rate mode : Variable
    Overall bit rate : 6 088 Kbps
    Video
    ID : 604 (0x25C)
    Menu ID : 80 (0x50)
    Format : AVC
    Format/Info : Advanced Video Codec
    Format profile : High@L4
    Format settings, CABAC : Yes
    Format settings, ReFrames : 3 frames
    Format settings, GOP : M=4, N=32
    Codec ID : 27
    Duration : 50mn 23s
    Bit rate : 5 205 Kbps
    Width : 1 920 pixels
    Height : 1 080 pixels
    Display aspect ratio : 16:9
    Frame rate : 25.000 fps
    Standard : Component
    Color space : YUV
    Chroma subsampling : 4:2:0
    Bit depth : 8 bits
    Scan type : Interlaced
    Scan type, store method : Separated fields
    Scan order : Top Field First
    Bits/(Pixel*Frame) : 0.100
    Stream size : 1.83 GiB (85%)
    Color range : Limited
    Color primaries : BT.709
    Transfer characteristics : BT.709
    Matrix coefficients : BT.709
    Audio #1
    ID : 607 (0x25F)
    Menu ID : 80 (0x50)
    Format : AC-3
    Format/Info : Audio Coding 3
    Mode extension : CM (complete main)
    Format settings, Endianness : Big
    Codec ID : 6
    Duration : 50mn 23s
    Bit rate mode : Constant
    Bit rate : 384 Kbps
    Channel(s) : 6 channels
    Channel positions : Front: L C R, Side: L R, LFE
    Sampling rate : 48.0 KHz
    Frame rate : 31.250 fps (1536 spf)
    Compression mode : Lossy
    Delay relative to video : -80ms
    Stream size : 138 MiB (6%)
    Language : Russian
    Audio #2
    ID : 608 (0x260)
    Menu ID : 80 (0x50)
    Format : MPEG Audio
    Format version : Version 1
    Format profile : Layer 2
    Codec ID : 3
    Duration : 50mn 23s
    Bit rate mode : Constant
    Bit rate : 192 Kbps
    Channel(s) : 2 channels
    Sampling rate : 48.0 KHz
    Compression mode : Lossy
    Delay relative to video : -80ms
    Stream size : 69.2 MiB (3%)
    Language : Russian
    -

    Скриншоты сериала


    -
    Скачать .torrent

    Скачать торрент-файл бесплатно и на максимальной скорости!

    Как скачивать? · Что такое торрент? · Рейтинг и ограничения

    !ВНИМАНИЕ!
    Сайт не распространяет и не хранит электронные версии произведений, а занимается лишь лишь предоставлением доступа к создаваемому пользователями каталогу ссылок на торрент-файлы, которые содержат только списки хеш-сумм, убедительная просьба с жалобами обращаться напрямую к пользователю. Файлы для обмена на трекере предоставлены пользователями сайта, и администрация не несёт ответственности за их содержание. Просьба не заливать файлы, защищенные авторскими правами, а также файлы нелегального содержания!


    _________________
    [Профиль] [ЛС]
    Показать сообщения:    
    Ответить на тему

    Текущее время: Сегодня, в 22:34

    Часовой пояс: GMT + 2



    Вы не можете начинать темы
    Вы не можете отвечать на сообщения
    Вы не можете редактировать свои сообщения
    Вы не можете удалять свои сообщения
    Вы не можете голосовать в опросах
    Вы не можете прикреплять файлы к сообщениям
    Вы не можете скачивать файлы