BitTorrentTracker PerecTracker.org
BitTorrentTracker PerecTracker.org
    
Регистрация  ·  Вход
 
 · 
Забыли пароль?

  • КЛИМ / Сезон: 1 / Серии: 1-8 из 8 (Карен Оганесян) [2015, драма, криминал, триллер, WEBRip]

    Ответить на тему
     
    Автор Сообщение

    rechyn

    Создавать темы 09-Фев-2016 14:18

           

    [Цитировать]

    КЛИМ

    Год выпуска: 2015
    Производство: Продюсерский центр «Среда»
    Жанр: драма, криминал, триллер
    Продолжительность: 8 х 0:50:00
    Режиссёр: Карен Оганесян
    В ролях: Константин Лавроненко, Дарья Мингазетдинова, Анна Астраханцева, Сергей Шнырев, Павел Чинарёв, Татьяна Колганова, Сергей Кудрявцев, Олег Рязанцев, Иван Николаев, Виталий Коваленко...
    Описание: Клим Рощин — полицейский, который до полиции начинал как ученый-этолог, изучал жизнь волков, жил в стае. Свое звериное чутье он применяет для поимки преступников. Уникальный полицейский, не использующий оружие. В его арсенале — дедукция, интуиция, провокационные допросы и знание повадок зверей. И, конечно, повышенное чувство справедливости, из-за которого он всех плохих найдет, но и всех хороших, своих, потеряе.
    Все раздачи сериалаКачество: WEBRip [ WEB-DL 1080p by valera76 ]
    Формат: AVI
    Видео кодек: XviD
    Аудио кодек: AC3
    Видео: 704x400 (1.76:1), 25 fps, XviD build 50 ~1243 kbps avg, 0.18 bit/pixel
    Аудио:48 kHz, AC3 Dolby Digital, 2/0 (L,R) ch, ~192.00 kbps avg

    Внимание. Раздача ведётся путём добавления новых серий

    Внимание! Раздача ведётся путём добавления новых серий; при каждом добавлении создётся новый торрент. Чтобы начать докачку новой серии, пользователям необходимо сделать следующее:
    (1) остановить скачивание,
    (2) удалить старый торрент у себя из клиента (старые серии удалять не надо),
    (3) скачать новый торрент и запустить его у себя в клиенте вместо старого, при этом указать клиенту путь в старую папку куда и должно происходить скачивание новых серий.
    Ваш клиент при этом должен произвести хеширование (проверку) старой папки (если не производит сам - помогите ему сделать это), и будет докачивать только те серии которых у вас ещё нет. Старые серии при этом не удаляются, а продолжают раздаваться!
    Eсли вы уже удалили старые серии, то предотвратить повторную закачку старых серий можно, отжав галочку в соответсвующих местах при запуске нового торрента. По возможности, желательно не удалять старые серии как можно дольше чтобы релизёр не столько продолжал раздавать старые серии, а смог сконцентрироваться на новых

    MI

    General
    Complete name : D:\Торренты\KLIM_HDRip_by_Drek_rutracker_Russkie_Seriali\KLIM_01_HDRip_by_Drek_rutracker_Russkie_Seriali.avi
    Format : AVI
    Format/Info : Audio Video Interleave
    File size : 539 MiB
    Duration : 52mn 8s
    Overall bit rate : 1 444 Kbps
    Writing application : VirtualDubMod 1.5.10.2 (build 2540/release)
    Writing library : VirtualDubMod build 2540/release
    Video
    ID : 0
    Format : MPEG-4 Visual
    Format profile : Advanced Simple@L5
    Format settings, BVOP : 1
    Format settings, QPel : No
    Format settings, GMC : No warppoints
    Format settings, Matrix : Custom
    Codec ID : XVID
    Codec ID/Hint : XviD
    Duration : 52mn 8s
    Bit rate : 1 242 Kbps
    Width : 704 pixels
    Height : 400 pixels
    Display aspect ratio : 16:9
    Frame rate : 25.000 fps
    Color space : YUV
    Chroma subsampling : 4:2:0
    Bit depth : 8 bits
    Scan type : Progressive
    Compression mode : Lossy
    Bits/(Pixel*Frame) : 0.176
    Stream size : 463 MiB (86%)
    Writing library : XviD 1.2.1 (UTC 2008-12-04)
    Audio
    ID : 1
    Format : AC-3
    Format/Info : Audio Coding 3
    Mode extension : CM (complete main)
    Format settings, Endianness : Big
    Codec ID : 2000
    Duration : 52mn 8s
    Bit rate mode : Constant
    Bit rate : 192 Kbps
    Channel(s) : 2 channels
    Channel positions : Front: L R
    Sampling rate : 48.0 KHz
    Frame rate : 31.250 fps (1536 spf)
    Compression mode : Lossy
    Stream size : 71.6 MiB (13%)
    Alignment : Split accross interleaves
    Interleave, duration : 40 ms (1.00 video frame)
    Interleave, preload duratio : 500 ms

    Скриншоты

    Скачать .torrent

    Скачать торрент-файл бесплатно и на максимальной скорости!

    Как скачивать? · Что такое торрент? · Рейтинг и ограничения

    !ВНИМАНИЕ!
    Сайт не распространяет и не хранит электронные версии произведений, а занимается лишь лишь предоставлением доступа к создаваемому пользователями каталогу ссылок на торрент-файлы, которые содержат только списки хеш-сумм, убедительная просьба с жалобами обращаться напрямую к пользователю. Файлы для обмена на трекере предоставлены пользователями сайта, и администрация не несёт ответственности за их содержание. Просьба не заливать файлы, защищенные авторскими правами, а также файлы нелегального содержания!


    _________________
    [Профиль] [ЛС]
    Показать сообщения:    
    Ответить на тему

    Текущее время: Сегодня, в 16:18

    Часовой пояс: GMT + 2



    Вы не можете начинать темы
    Вы не можете отвечать на сообщения
    Вы не можете редактировать свои сообщения
    Вы не можете удалять свои сообщения
    Вы не можете голосовать в опросах
    Вы не можете прикреплять файлы к сообщениям
    Вы не можете скачивать файлы