BitTorrentTracker PerecTracker.org
BitTorrentTracker PerecTracker.org
    
Регистрация  ·  Вход
 
 · 
Забыли пароль?

  • Паранормальное явление 5: Призраки / Paranormal Activity: The Ghost Dimension (Грегори Плоткин / Gregory Plotkin) [2015, США, ужасы, BDRip 720p] [Театральная версия / Theatrical Cut] Dub + Sub Rus, Eng + Original Eng

    Ответить на тему
     
    Автор Сообщение

    Flirldrerve

    Создавать темы 09-Фев-2016 12:30

           

    [Цитировать]

    Паранормальное явление 5: Призраки / Paranormal Activity: The Ghost Dimension / Театральная версия / Theatrical Cut
    Страна: США
    Студия: Blumhouse Productions
    Жанр: ужасы
    Год выпуска: 2015
    Продолжительность: 01:28:03
    Перевод: Профессиональный (дублированный)
    Cубтитры: Rus, Eng
    Оригинальная аудиодорожка: английский
    Режиссер: Грегори Плоткин / Gregory Plotkin
    В ролях: Крис Дж. Мюррэй, Бриттани Шоу, Айви Джордж, Дэн Гилл, Оливия Тейлор Дадли, Хлоя Ксенджери, Джесика Браун, Дон МакМанус, Майкл Кравич, Халли Фут
    Описание: Молодые супруги Райан и Эмили, и их 6-летняя дочь Лейла переезжают в довольно симпатичный и тихий дом. В гараже они находят видеокамеру и коробку кассет. Но они даже не подозревали, что они увидят, когда заглянут в объектив камеры…

    Исходник: Paranormal Activity: The Ghost Dimension 2015 Theatrical Cut 1080p CEE Blu-ray AVC DTS-HD MA 5.1-HDCLUB
    Тип релиза: BDRip 720p / Tonik
    Контейнер: MKV
    Видео: MPEG-4 AVC, 8170 Кбит/с, 1280x720, 23,976 fps
    Аудио: Rus, AC3, 640 kb/s (6 ch), 48 kHz
    Аудио 2: Eng, DTS, 1510 kb/s (6 ch), 48 kHz
    Формат субтитров: softsub (SRT)

    MediaInfo

    x264 [info]: frame I:626 Avg QP:16.37 size:138400
    x264 [info]: frame P:25346 Avg QP:18.68 size: 74759
    x264 [info]: frame B:100698 Avg QP:20.23 size: 35255
    x264 [info]: consecutive B-frames: 1.3% 1.8% 6.5% 19.8% 14.5% 31.6% 7.5% 10.4% 2.4% 1.2% 3.1%
    Format : Matroska
    Format version : Version 4 / Version 2
    File size : 6.48 GiB
    Duration : 1h 28mn
    Overall bit rate : 10.5 Mbps
    Movie name : Паранормальное явление 5. (Tonik)
    Encoded date : UTC 2016-02-05 19:00:52
    Writing application : mkvmerge v7.1.0 ('Good Love') 64bit built on Jul 27 2014 13:06:55
    Writing library : libebml v1.3.0 + libmatroska v1.4.1
    DURATION : 01:21:17.414000000
    NUMBER_OF_FRAMES : 1365
    NUMBER_OF_BYTES : 41962
    _STATISTICS_WRITING_APP : mkvmerge v7.1.0 ('Good Love') 64bit built on Jul 27 2014 13:06:55
    _STATISTICS_WRITING_DATE_UTC : 2016-02-05 19:00:52
    _STATISTICS_TAGS : BPS DURATION NUMBER_OF_FRAMES NUMBER_OF_BYTES
    Video
    ID : 1
    Format : AVC
    Format/Info : Advanced Video Codec
    Format profile : High@L4.1
    Format settings, CABAC : Yes
    Format settings, ReFrames : 9 frames
    Codec ID : V_MPEG4/ISO/AVC
    Duration : 1h 28mn
    Bit rate : 8 170 Kbps
    Width : 1 280 pixels
    Height : 720 pixels
    Display aspect ratio : 16:9
    Frame rate mode : Constant
    Frame rate : 23.976 fps
    Color space : YUV
    Chroma subsampling : 4:2:0
    Bit depth : 8 bits
    Scan type : Progressive
    Bits/(Pixel*Frame) : 0.370
    Stream size : 5.02 GiB (78%)
    Title : Tonik
    Writing library : x264 core 148 r2597 e86f3a1
    Encoding settings : cabac=1 / ref=9 / deblock=1:-3:-3 / analyse=0x3:0x133 / me=umh / subme=11 / psy=1 / psy_rd=1.00:0.00 / mixed_ref=1 / me_range=32 / chroma_me=1 / trellis=2 / 8x8dct=1 / cqm=0 / deadzone=21,11 / fast_pskip=0 / chroma_qp_offset=-2 / threads=12 / lookahead_threads=3 / sliced_threads=0 / nr=0 / decimate=0 / interlaced=0 / bluray_compat=0 / constrained_intra=0 / bframes=10 / b_pyramid=2 / b_adapt=2 / b_bias=0 / direct=3 / weightb=1 / open_gop=0 / weightp=2 / keyint=250 / keyint_min=23 / scenecut=40 / intra_refresh=0 / rc=crf / mbtree=0 / crf=17.4 / qcomp=0.60 / qpmin=0 / qpmax=69 / qpstep=4 / ip_ratio=1.40 / pb_ratio=1.30 / aq=1:0.80
    Language : English
    Default : Yes
    Forced : No
    DURATION : 01:28:03.200000000
    NUMBER_OF_FRAMES : 126670
    NUMBER_OF_BYTES : 5531555739
    _STATISTICS_WRITING_APP : mkvmerge v7.1.0 ('Good Love') 64bit built on Jul 27 2014 13:06:55
    _STATISTICS_WRITING_DATE_UTC : 2016-02-05 19:00:52
    _STATISTICS_TAGS : BPS DURATION NUMBER_OF_FRAMES NUMBER_OF_BYTES
    Audio #1
    ID : 2
    Format : AC-3
    Format/Info : Audio Coding 3
    Mode extension : CM (complete main)
    Format settings, Endianness : Big
    Codec ID : A_AC3
    Duration : 1h 28mn
    Bit rate mode : Constant
    Bit rate : 640 Kbps
    Channel(s) : 6 channels
    Channel positions : Front: L C R, Side: L R, LFE
    Sampling rate : 48.0 KHz
    Bit depth : 16 bits
    Compression mode : Lossy
    Stream size : 403 MiB (6%)
    Language : Russian
    Default : Yes
    Forced : No
    Audio #2
    ID : 3
    Format : DTS
    Format/Info : Digital Theater Systems
    Mode : 16
    Format settings, Endianness : Big
    Codec ID : A_DTS
    Duration : 1h 28mn
    Bit rate mode : Constant
    Bit rate : 1 509 Kbps
    Channel(s) : 6 channels
    Channel positions : Front: L C R, Side: L R, LFE
    Sampling rate : 48.0 KHz
    Bit depth : 24 bits
    Compression mode : Lossy
    Stream size : 950 MiB (14%)
    Language : English
    Default : No
    Forced : No
    Text #1
    ID : 4
    Format : UTF-8
    Codec ID : S_TEXT/UTF8
    Codec ID/Info : UTF-8 Plain Text
    Title : Forced
    Language : Russian
    Default : Yes
    Forced : No
    Text #2
    ID : 5
    Format : UTF-8
    Codec ID : S_TEXT/UTF8
    Codec ID/Info : UTF-8 Plain Text
    Language : Russian
    Default : No
    Forced : No
    Text #3
    ID : 6
    Format : UTF-8
    Codec ID : S_TEXT/UTF8
    Codec ID/Info : UTF-8 Plain Text
    Language : English
    Default : No
    Forced : No
    Menu
    00:00:00.000 : :Chapter 01
    00:01:56.074 : :Chapter 02
    00:09:23.312 : :Chapter 03
    00:17:33.177 : :Chapter 04
    00:24:11.491 : :Chapter 05
    00:29:08.288 : :Chapter 06
    00:36:40.990 : :Chapter 07
    00:42:59.451 : :Chapter 08
    00:49:04.441 : :Chapter 09
    00:56:20.668 : :Chapter 10
    01:04:23.609 : :Chapter 11
    01:11:25.322 : :Chapter 12
    01:22:39.120 : :Chapter 13
    01:28:02.944 : :Chapter 14

    Скриншоты

    Скачать .torrent

    Скачать торрент-файл бесплатно и на максимальной скорости!

    Как скачивать? · Что такое торрент? · Рейтинг и ограничения

    !ВНИМАНИЕ!
    Сайт не распространяет и не хранит электронные версии произведений, а занимается лишь лишь предоставлением доступа к создаваемому пользователями каталогу ссылок на торрент-файлы, которые содержат только списки хеш-сумм, убедительная просьба с жалобами обращаться напрямую к пользователю. Файлы для обмена на трекере предоставлены пользователями сайта, и администрация не несёт ответственности за их содержание. Просьба не заливать файлы, защищенные авторскими правами, а также файлы нелегального содержания!


    _________________
    [Профиль] [ЛС]
    Показать сообщения:    
    Ответить на тему

    Текущее время: Сегодня, в 00:04

    Часовой пояс: GMT + 2



    Вы не можете начинать темы
    Вы не можете отвечать на сообщения
    Вы не можете редактировать свои сообщения
    Вы не можете удалять свои сообщения
    Вы не можете голосовать в опросах
    Вы не можете прикреплять файлы к сообщениям
    Вы не можете скачивать файлы