BitTorrentTracker PerecTracker.org
BitTorrentTracker PerecTracker.org
    
Регистрация  ·  Вход
 
 · 
Забыли пароль?

  • [ATV3] Век Адалин / The Age of Adaline (Ли Толанд Кригер / Lee Toland Krieger ) [2015, США, Канада , Драма, мелодрама, фэнтези, BDRip, HD (1080p)] DUB + Original + sub (rus, eng)

    Ответить на тему
     
    Автор Сообщение

    Flirldrerve

    Создавать темы 09-Фев-2016 12:30

           

    [Цитировать]

    Век Адалин / The Age of Adaline
    «За последний век мир изменился. Адалин - нет»
    7.591 / 10 7.20 / 10
    -Год выпуска: 2015
    Страна: США, Канада
    Жанр: Драма, мелодрама, фэнтези
    Продолжительность: 1:52:29
    Перевод: Дублированный (iTunes)
    Оригинальная аудиодорожка: Есть
    Cубтитры: Русские, Английские, Английские SDH
    Режиссёр: Ли Толанд Кригер
    Сценарий: Дж. Миллс Гудло, Сальвадор Пашковиц
    Продюсер: Сидни Киммел, Гари Лучези, Том Розенберг
    Оператор: Дэвид Ланценберг
    Композитор: Роб Симонсен
    Художник: Клод Паре, Мартина Яворова, Энгус Стрэтай
    Монтаж: Мелисса Кент
    В ролях: Блейк Лайвли, Михил Хаушман, Кэти Бейкер, Харрисон Форд, Эллен Бёрстин, Аманда Крю, Линда Бойд, Хью Росс, Ричард Хэрмон, Фульвио Чечере
    Бюджет: $25 000 000
    Сборы в США: $42 629 776
    Сборы в России: $819 493
    Мировая премьера: 8 апреля 2015
    Премьера (РФ): 21 мая 2015, «West»
    Описание: По сюжету главная героиня родилась вместе с XX веком и живет на свете уже сто лет, но при этом не стареет. Несмотря на свою долгую жизнь, Адалин так и не смогла найти любимого человека. Однако наконец-то она встречает мужчину, ради которого сможет снова стать смертной и состариться вместе с ним.-Качество исходника: Blu-Ray (BlueBird)
    Качество: BDRip
    Тип: HD (1080p)
    Контейнер: M4V
    Видео: H.264, 1920x800, 2.40:1, 8 000 Kbps, 23.976 (24000/1001) fps
    Аудио 1: Русский/Дублированный (iTunes), AAC / 2.0 / 157 Kbps / 48.0 KHz
    Аудио 2: Английский/Оригинальная дорожка , AAC / 2.0 / 157 Kbps / 48.0 KHz
    Аудио 3: Русский/Дублированный (iTunes), AC-3 / 5.1 / 384 Kbps / 48.0 KHz
    Аудио 4: Английский/Оригинальная дорожка , AC-3 / 5.1 / 640 Kbps / 48.0 KHz
    Субтитры 1: Русские полные
    Субтитры 2: Английские полные
    Субтитры 3: Английские SDH
    -

    iTunes Meta Tags

    Sort Name: Age of Adaline
    XID: Apple:vendor_id:2015-522876
    contentID: 989314879
    Copyright: © 2015 Lakeshore Entertainment Group LLC, Kimmel Distribution, LLC and Lions Gate Films Inc. All Rights Reserved.
    Screenwriters: Дж. Миллс Гудло, Сальвадор Пашковиц
    Producers: Сидни Киммел, Гари Лучези, Том Розенберг
    Director: Ли Толанд Кригер
    Cast: Блейк Лайвли, Михил Хаушман, Кэти Бейкер, Харрисон Форд, Эллен Бёрстин, Аманда Крю, Линда Бойд, Хью Росс, Ричард Хэрмон, Фульвио Чечере, Рамиля Искандер, Иван Калинин, Ирина Пономарева, Владимир Антоник, Любовь Германова
    Studio: Entertainment One
    Rating: 35
    Long Description: По сюжету главная героиня родилась вместе с XX веком и живет на свете уже сто лет, но при этом не стареет. Несмотря на свою долгую жизнь, Адалин так и не смогла найти любимого человека. Однако наконец-то она встречает мужчину, ради которого сможет снова стать смертной и состариться вместе с ним.
    Description: По сюжету главная героиня родилась вместе с XX веком и живет на свете уже сто лет, но при этом не стареет. Несмотря на свою долгую жизнь, Адалин так и не смогла найти любимого человека. Однако наконец-то она встречает мужчину, ради которого сможет снова стать смертной и состариться вместе с ним.
    Release Date: 2015-04-08T08:00:00Z
    Genre: Drama
    Artist: Lee Toland Krieger
    Name: The Age of Adaline

    MediaInfo

    General
    Complete name : /Users/imac/HandBrake/The Age of Adaline (1080p HD).m4v
    Format : MPEG-4
    Codec ID : M4V  (M4V /M4A /mp42/isom)
    File size : 7.34 GiB
    Duration : 1h 52mn
    Overall bit rate mode : Variable
    Overall bit rate : 9 339 Kbps
    Movie name : The Age of Adaline
    Performer : Lee Toland Krieger
    Director : Ли Толанд Кригер
    Actor : Блейк Лайвли / Михил Хаушман / Кэти Бейкер / Харрисон Форд / Эллен Бёрстин / Аманда Крю / Линда Бойд / Хью Росс / Ричард Хэрмон / Фульвио Чечере / Рамиля Искандер / Иван Калинин / Ирина Пономарева / Владимир Антоник / Любовь Германова
    Screenplay by : Дж. Миллс Гудло / Сальвадор Пашковиц
    Producer : Сидни Киммел / Гари Лучези / Том Розенберг
    Production studio : Entertainment One
    Genre : Drama
    ContentType : Short Film
    Description : По сюжету главная героиня родилась вместе с XX веком и живет на свете уже сто лет, но при этом не стареет. Несмотря на свою долгую жизнь, Адалин так и не смогла найти любимого человека. Однако наконец-то она встречает мужчину, ради которого сможет снова стать смертной и состариться вместе с ним.
    Recorded date : UTC 2015-04-08 08:00:00
    Encoded date : UTC 2016-02-08 21:27:51
    Tagged date : UTC 2016-02-08 21:29:47
    Copyright : © 2015 Lakeshore Entertainment Group LLC, Kimmel Distribution, LLC and Lions Gate Films Inc. All Rights Reserved.
    Cover : Yes
    Rating : None
    Title/Sort : Age of Adaline
    LongDescription : По сюжету главная героиня родилась вместе с XX веком и живет на свете уже сто лет, но при этом не стареет. Несмотря на свою долгую жизнь, Адалин так и не смогла найти любимого человека. Однако наконец-то она встречает мужчину, ради которого сможет снова стать смертной и состариться вместе с ним.
    AppleStoreCatalogID : 989314879
    Vendor : Apple:vendor_id:2015-522876
    ContentRating : ca-movie|PG|200|
    Video #1
    ID : 1
    Format : AVC
    Format/Info : Advanced Video Codec
    Format profile : High@L4
    Format settings, CABAC : Yes
    Format settings, ReFrames : 4 frames
    Codec ID : avc1
    Codec ID/Info : Advanced Video Coding
    Duration : 1h 52mn
    Source duration : 1h 52mn
    Bit rate : 8 000 Kbps
    Width : 1 920 pixels
    Height : 800 pixels
    Display aspect ratio : 2.40:1
    Frame rate mode : Variable
    Frame rate : 23.976 (24000/1001) fps
    Minimum frame rate : 23.974 fps
    Maximum frame rate : 23.981 fps
    Color space : YUV
    Chroma subsampling : 4:2:0
    Bit depth : 8 bits
    Scan type : Progressive
    Bits/(Pixel*Frame) : 0.217
    Stream size : 6.28 GiB (86%)
    Source stream size : 6.28 GiB (86%)
    Title : Main Program
    Writing library : x264 core 142 r2479 dd79a61
    Encoding settings : cabac=1 / ref=4 / deblock=1:-2:-2 / analyse=0x3:0x133 / me=umh / subme=10 / psy=1 / psy_rd=1.00:0.15 / mixed_ref=1 / me_range=32 / chroma_me=1 / trellis=2 / 8x8dct=1 / cqm=0 / deadzone=21,11 / fast_pskip=0 / chroma_qp_offset=-3 / threads=36 / lookahead_threads=6 / sliced_threads=0 / nr=0 / decimate=0 / interlaced=0 / bluray_compat=0 / constrained_intra=0 / bframes=16 / b_pyramid=2 / b_adapt=2 / b_bias=0 / direct=3 / weightb=1 / open_gop=0 / weightp=2 / keyint=240 / keyint_min=24 / scenecut=40 / intra_refresh=0 / rc_lookahead=60 / rc=2pass / mbtree=1 / bitrate=8000 / ratetol=1.0 / qcomp=0.70 / qpmin=0 / qpmax=69 / qpstep=4 / cplxblur=20.0 / qblur=0.5 / vbv_maxrate=25000 / vbv_bufsize=25000 / nal_hrd=none / filler=0 / ip_ratio=1.40 / aq=1:1.00
    Encoded date : UTC 2016-02-08 21:27:51
    Tagged date : UTC 2016-02-08 21:28:05
    Color range : Limited
    Color primaries : BT.709
    Transfer characteristics : BT.709
    Matrix coefficients : BT.709
    Menus : 9,10
    Video #2
    ID : 10
    Format : JPEG
    Codec ID : jpeg
    Duration : 1h 52mn
    Bit rate mode : Variable
    Bit rate : 569 bps
    Width : 640 pixels
    Height : 266 pixels
    Display aspect ratio : 2.40:1
    Frame rate mode : Variable
    Frame rate : 0.002 fps
    Minimum frame rate : 0.001 fps
    Maximum frame rate : 0.003 fps
    Color space : YUV
    Chroma subsampling : 4:2:0
    Bit depth : 8 bits
    Compression mode : Lossy
    Bits/(Pixel*Frame) : 1.671
    Stream size : 417 KiB (0%)
    Title : Chapter Images
    Default : No
    Encoded date : UTC 2016-02-08 21:28:11
    Tagged date : UTC 2016-02-08 21:28:11
    Menu For : 1
    Audio #1
    ID : 2
    Format : AAC
    Format/Info : Advanced Audio Codec
    Format profile : LC
    Codec ID : 40
    Duration : 1h 52mn
    Bit rate mode : Variable
    Bit rate : 157 Kbps
    Maximum bit rate : 227 Kbps
    Channel(s) : 2 channels
    Channel positions : Front: L R
    Sampling rate : 48.0 KHz
    Frame rate : 46.875 fps (1024 spf)
    Compression mode : Lossy
    Stream size : 127 MiB (2%)
    Title : Russian Stereo
    Language : Russian
    Default : Yes
    Alternate group : 1
    Encoded date : UTC 2016-02-08 21:27:51
    Tagged date : UTC 2016-02-08 21:28:07
    Fallback From : 4
    Menus : 9
    Audio #2
    ID : 3
    Format : AAC
    Format/Info : Advanced Audio Codec
    Format profile : LC
    Codec ID : 40
    Duration : 1h 52mn
    Bit rate mode : Variable
    Bit rate : 157 Kbps
    Maximum bit rate : 259 Kbps
    Channel(s) : 2 channels
    Channel positions : Front: L R
    Sampling rate : 48.0 KHz
    Frame rate : 46.875 fps (1024 spf)
    Compression mode : Lossy
    Stream size : 126 MiB (2%)
    Title : English Stereo
    Language : English
    Default : No
    Alternate group : 1
    Encoded date : UTC 2016-02-08 21:27:51
    Tagged date : UTC 2016-02-08 21:28:06
    Fallback From : 5
    Audio #3
    ID : 4
    Format : AC-3
    Format/Info : Audio Coding 3
    Mode extension : CM (complete main)
    Format settings, Endianness : Big
    Codec ID : ac-3
    Duration : 1h 52mn
    Bit rate mode : Constant
    Bit rate : 384 Kbps
    Channel(s) : 6 channels
    Channel positions : Front: L C R, Side: L R, LFE
    Sampling rate : 48.0 KHz
    Frame rate : 31.250 fps (1536 spf)
    Bit depth : 16 bits
    Compression mode : Lossy
    Stream size : 309 MiB (4%)
    Title : Russian DD 5.1
    Language : Russian
    Default : Inherited From: 2
    Alternate group : 1
    Encoded date : UTC 2016-02-08 21:27:51
    Tagged date : UTC 2016-02-08 21:27:57
    Fallback To : 2
    Audio #4
    ID : 5
    Format : AC-3
    Format/Info : Audio Coding 3
    Mode extension : CM (complete main)
    Format settings, Endianness : Big
    Codec ID : ac-3
    Duration : 1h 52mn
    Bit rate mode : Constant
    Bit rate : 640 Kbps
    Channel(s) : 6 channels
    Channel positions : Front: L C R, Side: L R, LFE
    Sampling rate : 48.0 KHz
    Frame rate : 31.250 fps (1536 spf)
    Bit depth : 16 bits
    Compression mode : Lossy
    Stream size : 515 MiB (7%)
    Title : English DD 5.1
    Language : English
    Default : No
    Alternate group : 1
    Encoded date : UTC 2016-02-08 21:27:51
    Tagged date : UTC 2016-02-08 21:27:57
    Fallback To : 3
    Text #1
    ID : 6
    Format : Timed Text
    Muxing mode : sbtl
    Codec ID : tx3g
    Duration : 1h 47mn
    Bit rate mode : Variable
    Bit rate : 93 bps
    Stream size : 72.9 KiB (0%)
    Title : Russian full
    Language : Russian
    Default : Yes
    Forced : No
    Alternate group : 2
    Encoded date : UTC 2016-02-08 21:27:51
    Tagged date : UTC 2016-02-08 21:27:51
    Text #2
    ID : 7
    Format : Timed Text
    Muxing mode : sbtl
    Codec ID : tx3g
    Duration : 1h 45mn
    Bit rate mode : Variable
    Bit rate : 64 bps
    Stream size : 49.2 KiB (0%)
    Title : English full
    Language : English
    Default : No
    Forced : No
    Alternate group : 2
    Encoded date : UTC 2016-02-08 21:27:51
    Tagged date : UTC 2016-02-08 21:27:51
    Text #3
    ID : 8
    Format : Timed Text
    Muxing mode : sbtl
    Codec ID : tx3g
    Duration : 1h 45mn
    Bit rate mode : Variable
    Bit rate : 70 bps
    Stream size : 54.1 KiB (0%)
    Title : English SDH
    Language : English
    Default : No
    Forced : No
    Alternate group : 2
    Encoded date : UTC 2016-02-08 21:27:51
    Tagged date : UTC 2016-02-08 21:27:51
    Menu #1
    00:00:00.000 : Chapter 1
    00:16:51.969 : Chapter 2
    00:25:41.415 : Chapter 3
    00:35:36.801 : Chapter 4
    00:45:20.676 : Chapter 5
    00:54:37.357 : Chapter 6
    01:02:14.022 : Chapter 7
    01:12:48.823 : Chapter 8
    01:21:12.284 : Chapter 9
    01:29:09.302 : Chapter 10
    01:38:25.733 : Chapter 11
    01:43:21.779 : Chapter 12
    Menu #2
    ID : 9
    Codec ID : text
    Duration : 1h 52mn
    Title : Chapter Images
    Encoded date : UTC 2016-02-08 21:28:07
    Tagged date : UTC 2016-02-08 21:28:07
    Menu For : 2,1
    00:00:00.000 : Chapter 1
    00:16:51.969 : Chapter 2
    00:25:41.415 : Chapter 3
    00:35:36.801 : Chapter 4
    00:45:20.676 : Chapter 5
    00:54:37.357 : Chapter 6
    01:02:14.022 : Chapter 7
    01:12:48.823 : Chapter 8
    01:21:12.284 : Chapter 9
    01:29:09.302 : Chapter 10
    01:38:25.733 : Chapter 11
    01:43:21.779 : Chapter 12
    Bit rate mode : VBR

    x264 лог

    x264 [info]: frame I:1053  Avg QP:16.50  size:197925
    x264 [info]: frame P:33734 Avg QP:18.96  size: 64886
    x264 [info]: frame B:127041 Avg QP:19.73  size: 34205
    x264 [info]: consecutive B-frames:  1.7%  3.7%  7.1% 10.5% 13.7% 56.7%  4.0%  0.4%  0.4%  0.3%  0.2%  0.1%  0.2%  0.1%  0.1%  0.3%  0.6%
    x264 [info]: mb I  I16..4: 17.9% 69.3% 12.8%
    x264 [info]: mb P  I16..4:  2.0% 13.6%  0.9%  P16..4: 43.9% 17.8% 12.3%  0.2%  0.1%    skip: 9.2%
    x264 [info]: mb B  I16..4:  0.1%  2.1%  0.1%  B16..8: 43.2%  9.0%  2.1%  direct: 9.4%  skip:33.9%  L0:44.6% L1:45.2% BI:10.2%
    x264 [info]: 8x8 transform intra:84.1% inter:55.7%
    x264 [info]: direct mvs  spatial:97.1% temporal:2.9%
    x264 [info]: coded y,uvDC,uvAC intra: 90.1% 83.8% 66.4% inter: 34.5% 31.9% 12.9%
    x264 [info]: i16 v,h,dc,p: 33% 12% 20% 35%
    x264 [info]: i8 v,h,dc,ddl,ddr,vr,hd,vl,hu:  9%  7% 13% 10% 13% 12% 12% 11% 12%
    x264 [info]: i4 v,h,dc,ddl,ddr,vr,hd,vl,hu: 10%  8%  6%  9% 15% 14% 14% 11% 13%
    x264 [info]: i8c dc,h,v,p: 53% 17% 16% 14%
    x264 [info]: Weighted P-Frames: Y:3.5% UV:1.5%
    x264 [info]: ref P L0: 49.4%  9.0% 28.8% 11.6%  1.2%  0.0%
    x264 [info]: ref B L0: 82.3% 14.5%  3.2%
    x264 [info]: ref B L1: 90.2%  9.8%
    x264 [info]: kb/s:7991.86

    Скриншоты

    -

    Релиз подготовлен для просмотра на Apple TV, iPad, iPhone, iPod Touch.
    Для просмотра данного релиза на компьютере с ОС Windows рекомендуется использовать VLC media player
    Скачать .torrent

    Скачать торрент-файл бесплатно и на максимальной скорости!

    Как скачивать? · Что такое торрент? · Рейтинг и ограничения

    !ВНИМАНИЕ!
    Сайт не распространяет и не хранит электронные версии произведений, а занимается лишь лишь предоставлением доступа к создаваемому пользователями каталогу ссылок на торрент-файлы, которые содержат только списки хеш-сумм, убедительная просьба с жалобами обращаться напрямую к пользователю. Файлы для обмена на трекере предоставлены пользователями сайта, и администрация не несёт ответственности за их содержание. Просьба не заливать файлы, защищенные авторскими правами, а также файлы нелегального содержания!


    _________________
    [Профиль] [ЛС]
    Показать сообщения:    
    Ответить на тему

    Текущее время: Сегодня, в 04:02

    Часовой пояс: GMT + 2



    Вы не можете начинать темы
    Вы не можете отвечать на сообщения
    Вы не можете редактировать свои сообщения
    Вы не можете удалять свои сообщения
    Вы не можете голосовать в опросах
    Вы не можете прикреплять файлы к сообщениям
    Вы не можете скачивать файлы