BitTorrentTracker PerecTracker.org
BitTorrentTracker PerecTracker.org
    
Регистрация  ·  Вход
 
 · 
Забыли пароль?

  • Заложница 2 / Taken 2 (Оливье Мегатон / Olivier Megaton) [2012, Франция, боевик, триллер, криминал, BDRip 1080p] [Theatrical Cut] Dub + Sub Rus, Eng + Original Eng

    Ответить на тему
     
    Автор Сообщение

    Flirldrerve

    Создавать темы 09-Фев-2016 00:05

           

    [Цитировать]

    -Заложница 2 / Taken 2
    «Сначала они схватили его дочь, теперь они идут за ним»--Страна: Франция
    Жанр: Боевик, Триллер, Криминал
    Год выпуска: 2012
    Продолжительность: 01:32:07-Перевод: Профессиональный (дублированный)-Cубтитры: Русские, Английские
    Оригинальная аудиодорожка: Английская-Режиссер: Оливье Мегатон / Olivier Megaton-В ролях: Лиам Нисон, Мэгги Грэйс, Фамке Янссен, Лиленд Орсер, Джон Грайз, Д.Б. Суини, Люк Граймс, Раде Шербеджия, Кеворк Маликян, Ален Фиглаж-Описание: Брайану Миллсу придется расхлебывать последствия своих действий. Спасая свою дочь, он убил главаря банды, у которого — сюрприз! — есть отец по имени Мурад. Мурад жаждет отмщения и описывается как человек, отдающий приказы, но сам никогда никому не подчиняющийся. Мурад берет в заложники Миллса с супругой, и тут уже Ким Миллс нужно будет спасать своих родителей.---Тип релиза: BDRip 1080p
    Контейнер: MKV-Видео: MPEG-4 AVC, 1920x804 (2.40:1), 23.976 fps, ~18000 kbps avg, 0.489 bit/pixel
    Аудио 1: 48 kHz, DTS, 3/2 (L,C,R,l,r) + LFE ch, ~768 kbps avg
    Аудио 2: 48 kHz, DTS, 3/2 (L,C,R,l,r) + LFE ch, ~1509 kbps avg-

    MediaInfo

    Complete name : D:\РАЗДАЧИ\Taken 2 ( 2012) BDRip 1080p.mkv
    Format : Matroska
    Format version : Version 2
    File size : 13.1 GiB
    Duration : 1h 32mn
    Overall bit rate : 20.3 Mbps
    Movie name : Taken 2 ( 2012) BDRip 1080p
    Encoded date : UTC 2016-02-06 07:52:42
    Writing application : mkvmerge v3.0.0 ('Hang up your Hang-Ups') built on Dec 12 2009 15:20:35
    Writing library : libebml v0.7.9 + libmatroska v0.8.1
    Cover : Yes
    Video
    ID : 1
    Format : AVC
    Format/Info : Advanced Video Codec
    Format profile : High@L4.1
    Format settings, CABAC : Yes
    Format settings, ReFrames : 5 frames
    Codec ID : V_MPEG4/ISO/AVC
    Duration : 1h 32mn
    Bit rate : 18.1 Mbps
    Width : 1 920 pixels
    Height : 804 pixels
    Display aspect ratio : 2.40:1
    Frame rate mode : Constant
    Frame rate : 23.976 fps
    Color space : YUV
    Chroma subsampling : 4:2:0
    Bit depth : 8 bits
    Scan type : Progressive
    Bits/(Pixel*Frame) : 0.489
    Stream size : 11.4 GiB (87%)
    Writing library : x264 core 129 r2230 1cffe9f
    Encoding settings : cabac=1 / ref=5 / deblock=1:-3:-3 / analyse=0x3:0x133 / me=umh / subme=11 / psy=1 / psy_rd=1.05:0.15 / mixed_ref=1 / me_range=24 / chroma_me=1 / trellis=2 / 8x8dct=1 / cqm=0 / deadzone=6,6 / fast_pskip=0 / chroma_qp_offset=-3 / threads=12 / lookahead_threads=2 / sliced_threads=0 / nr=0 / decimate=0 / interlaced=0 / bluray_compat=0 / constrained_intra=0 / bframes=11 / b_pyramid=2 / b_adapt=2 / b_bias=0 / direct=3 / weightb=1 / open_gop=0 / weightp=2 / keyint=240 / keyint_min=22 / scenecut=40 / intra_refresh=0 / rc_lookahead=60 / rc=2pass / mbtree=0 / bitrate=18100 / ratetol=1.0 / qcomp=0.75 / qpmin=0 / qpmax=40 / qpstep=4 / cplxblur=20.0 / qblur=0.5 / vbv_maxrate=30000 / vbv_bufsize=40000 / nal_hrd=none / ip_ratio=1.15 / pb_ratio=1.25 / aq=1:0.70
    Language : English
    Default : No
    Forced : No
    Color primaries : BT.709
    Transfer characteristics : BT.709
    Matrix coefficients : BT.709
    Audio #1
    ID : 2
    Format : DTS
    Format/Info : Digital Theater Systems
    Mode : 16
    Format settings, Endianness : Big
    Codec ID : A_DTS
    Duration : 1h 32mn
    Bit rate mode : Constant
    Bit rate : 755 Kbps
    Channel(s) : 6 channels
    Channel positions : Front: L C R, Side: L R, LFE
    Sampling rate : 48.0 KHz
    Bit depth : 24 bits
    Compression mode : Lossy
    Stream size : 497 MiB (4%)
    Title : Дубляж
    Language : Russian
    Default : Yes
    Forced : No
    Audio #2
    ID : 3
    Format : DTS
    Format/Info : Digital Theater Systems
    Mode : 16
    Format settings, Endianness : Big
    Codec ID : A_DTS
    Duration : 1h 32mn
    Bit rate mode : Constant
    Bit rate : 1 509 Kbps
    Channel(s) : 6 channels
    Channel positions : Front: L C R, Side: L R, LFE
    Sampling rate : 48.0 KHz
    Bit depth : 24 bits
    Compression mode : Lossy
    Stream size : 994 MiB (7%)
    Title : Original
    Language : English
    Default : No
    Forced : No
    Text #1
    ID : 4
    Format : UTF-8
    Codec ID : S_TEXT/UTF8
    Codec ID/Info : UTF-8 Plain Text
    Title : Russian
    Language : Russian
    Default : No
    Forced : No
    Text #2
    ID : 5
    Format : UTF-8
    Codec ID : S_TEXT/UTF8
    Codec ID/Info : UTF-8 Plain Text
    Title : English
    Language : English
    Default : No
    Forced : No
    Menu
    00:00:00.000 : en:Chapter 01
    00:04:18.424 : en:Chapter 02
    00:07:24.694 : en:Chapter 03
    00:08:51.280 : en:Chapter 04
    00:12:45.389 : en:Chapter 05
    00:16:01.669 : en:Chapter 06
    00:19:41.179 : en:Chapter 07
    00:22:06.283 : en:Chapter 08
    00:25:10.926 : en:Chapter 09
    00:30:22.946 : en:Chapter 10
    00:34:48.169 : en:Chapter 11
    00:38:06.992 : en:Chapter 12
    00:41:31.322 : en:Chapter 13
    00:45:37.985 : en:Chapter 14
    00:50:35.991 : en:Chapter 15
    00:56:38.853 : en:Chapter 16
    01:00:21.617 : en:Chapter 17
    01:04:41.252 : en:Chapter 18
    01:07:06.939 : en:Chapter 19
    01:10:28.265 : en:Chapter 20
    01:15:44.831 : en:Chapter 21
    01:19:28.471 : en:Chapter 22
    01:23:06.648 : en:Chapter 23
    01:26:02.824 : en:Chapter 24

    Скриншоты

    Скачать .torrent

    Скачать торрент-файл бесплатно и на максимальной скорости!

    Как скачивать? · Что такое торрент? · Рейтинг и ограничения

    !ВНИМАНИЕ!
    Сайт не распространяет и не хранит электронные версии произведений, а занимается лишь лишь предоставлением доступа к создаваемому пользователями каталогу ссылок на торрент-файлы, которые содержат только списки хеш-сумм, убедительная просьба с жалобами обращаться напрямую к пользователю. Файлы для обмена на трекере предоставлены пользователями сайта, и администрация не несёт ответственности за их содержание. Просьба не заливать файлы, защищенные авторскими правами, а также файлы нелегального содержания!


    _________________
    [Профиль] [ЛС]
    Показать сообщения:    
    Ответить на тему

    Текущее время: Сегодня, в 11:59

    Часовой пояс: GMT + 2



    Вы не можете начинать темы
    Вы не можете отвечать на сообщения
    Вы не можете редактировать свои сообщения
    Вы не можете удалять свои сообщения
    Вы не можете голосовать в опросах
    Вы не можете прикреплять файлы к сообщениям
    Вы не можете скачивать файлы